Subcategories

Scharwenka - Trio Parnassus - Piano Trios - Cello Sonata (1994)

Posted By: luckburz
Scharwenka - Trio Parnassus - Piano Trios - Cello Sonata (1994)

Philipp Scharwenka - Trio Parnassus - Piano Trios op.110 & op.112 / Cello Sonata op.116
EAC+LOG+CUE | FLAC: 445 MB | Full Artwork | 5% Recovery Info
Label/Cat#: MDG "Gold" # 303 0532-2 | Country/Year: Germany 1994
Genre: Classical | Style: Romantic

MD5 [X] CUE [X] LOG [X] INFO TEXT [X] ARTWORK [X]

selfrip [X] not my rip []

Scharwenka - Trio Parnassus - Piano Trios - Cello Sonata (1994)


Exact Audio Copy V1.0 beta 3 from 29. August 2011

EAC extraction logfile from 2. October 2012, 17:59

Trio Parnassus / Scharwenka: Piano Trios - Cello Sonata

Used drive : PIONEER BD-RW BDR-206 Adapter: 0 ID: 2

Read mode : Secure
Utilize accurate stream : Yes
Defeat audio cache : Yes
Make use of C2 pointers : No

Read offset correction : 667
Overread into Lead-In and Lead-Out : No
Fill up missing offset samples with silence : Yes
Delete leading and trailing silent blocks : No
Null samples used in CRC calculations : Yes
Used interface : Native Win32 interface for Win NT & 2000

Used output format : User Defined Encoder
Selected bitrate : 1024 kBit/s
Quality : High
Add ID3 tag : Yes
Command line compressor : C:\Program Files\FLAC\flac.exe
Additional command line options : -5 -T "Artist=%artist%" -T "Title=%title%" -T "Album=%albumtitle%" -T "Date=%year%" -T "Tracknumber=%tracknr%" -T "Genre=%genre%" %source% -o %dest%


TOC of the extracted CD

Track | Start | Length | Start sector | End sector
––––––––––––––––––––––––––––-
1 | 0:00.50 | 9:57.20 | 50 | 44844
2 | 9:57.70 | 8:12.70 | 44845 | 81814
3 | 18:10.65 | 7:32.65 | 81815 | 115779
4 | 25:43.55 | 14:22.42 | 115780 | 180471
5 | 40:06.22 | 9:26.03 | 180472 | 222924
6 | 49:32.25 | 6:07.25 | 222925 | 250474
7 | 55:39.50 | 8:24.70 | 250475 | 288344


Range status and errors

Selected range

Filename F:\=== VINYL RIPS ===\=== EAC===\X FRESH RIP\Scharwenka- Trio Parnassus - Scharwenka- Piano Trios - Cello Sonata.wav

Peak level 100.0 %
Extraction speed 8.0 X
Range quality 99.9 %
Test CRC F4D3AD78
Copy CRC F4D3AD78
Copy OK

No errors occurred


AccurateRip summary

Track 1 not present in database
Track 2 not present in database
Track 3 not present in database
Track 4 not present in database
Track 5 not present in database
Track 6 not present in database
Track 7 not present in database

None of the tracks are present in the AccurateRip database

End of status report

–– CUETools DB Plugin V2.1.3

[CTDB TOCID: Gm6z_LcPjtj0p5lSgylsY8beqHE-] disk not present in database, Submit result: discs with pregaps not supported in this protocol version


==== Log checksum 1DCC4D4081CB89B07F18E54ECE806CE5ECC0E7132CC196E0B73C32E2F64B9079 ====

foobar2000 1.1.14a / Dynamic Range Meter 1.1.1
log date: 2012-11-06 22:17:59

––––––––––––––––––––––––––––––––––––––––
Analyzed: Trio Parnassus / Scharwenka: Piano Trios - Cello Sonata
––––––––––––––––––––––––––––––––––––––––

DR Peak RMS Duration Track
––––––––––––––––––––––––––––––––––––––––
DR15 0.00 dB -20.42 dB 9:57 01-Piano Trio in G - Op. 112 - Allegro moderato
DR17 -0.49 dB -23.92 dB 8:13 02-Piano Trio in G - Op. 112 - Andante tranquillo
DR15 -0.06 dB -18.65 dB 7:33 03-Piano Trio in G - Op. 112 - Allegro con spirito
DR15 0.00 dB -20.45 dB 14:23 04-Cello Sonata in g - Op. 116 - Lento patetico-Andante-Allegro con spirito
DR16 -0.12 dB -23.17 dB 9:26 05-Piano Trio in cis - Op. 100 - Lento tranquillo
DR15 -0.13 dB -20.57 dB 6:07 06-Piano Trio in cis - Op. 100 - Allegro
DR14 -0.05 dB -19.81 dB 8:25 07-Piano Trio in cis - Op. 100 - Allegro apassionato
––––––––––––––––––––––––––––––––––––––––

Number of tracks: 7
Official DR value: DR15

Samplerate: 44100 Hz
Channels: 2
Bits per sample: 16
Bitrate: 536 kbps
Codec: FLAC
================================================================================



CD Info:

Philipp Scharwenka (1847-1917) - Trio Parnassus - Piano Trios op.110 & op.112 / Cello Sonata op.116

Label: MDG
Series: Gold
Catalog#: 303 0532-2
Format: CD, Album
Country: Germany
Released: 1994
Genre: Classical

Tracklist:

1 - Piano Trio in G - Op. 112 - Allegro moderato 9:57
2 - Piano Trio in G - Op. 112 - Andante tranquillo 8:13
3 - Piano Trio in G - Op. 112 - Allegro con spirito 7:33
4 - Cello Sonata in g - Op. 116 - Lento patetico-Andante-Allegro con spirito 14:23
5 - Piano Trio in cis - Op. 100 - Lento tranquillo 9:26
6 - Piano Trio in cis - Op. 100 - Allegro 6:07
7 - Piano Trio in cis - Op. 100 - Allegro apassionato 8:25

Scharwenka - Trio Parnassus - Piano Trios - Cello Sonata (1994)


Trio Parnassus:

Wolf-Dieter Streicher - violin
Michael Gross - violoncello
Chia Chou - Piano

Recorded: March 1993, Fürstliche Reitbahn Arolsen

Liner Notes by Dr. Irmlind Capelle

„das Trio spielt die teilweise sehr virtuosen Weke mit großem Engagement, zupackend und leidenschaftlich bewegt. Eine echte Entdeckung. Sehr empfehlenswert.“ FonoForum

„Das Trio Parnassus mit der Ersteinspielung der Klaviertrios von Philipp Scharwenka, als Zugabe die Cellosonate. Eine geradezu süchtig machende Kombination.“ Stuttgarter Zeitung

„…three strong players with alert intelligence and gorgeous recorded sound.“ American Record Guide


Various Composers - Prof. Hans Michael Koch - La Guitarra Espanola 1546 - 1732
Peter Ruzicka - Chamber Music: Introspecione / Ausgeweidet Die Zeit… / Preludes / Stille
Thomas Tomkins (1572-1656) - Complete Keyboard Music Vol. 2
Thomas Tomkins (1572-1656) - Complete Keyboard Music Vol. 1
Waldemar Döling - Variationen für Cembalo / Variations for harpsichord
Robert Schumann - Rudolf Innig - Complete Organ Works
Various Composers - Sächsische Orgelmusik / Saxon Organ Music
Julius Reubke - Martin Sander, Claudius Tanski - Sonata on the 94th Psalm in C minor & Piano Sonata in B minor
John Cage - Steffen Schleiermacher - Complete Piano Music Vol. 1 - The Prepared Piano
Brandt & Böhme - Wolfgang Bauer - Music For Trumpet [CD Rip]
Brandt & Böhme - Wolfgang Bauer - Music For Trumpet [SACD Rip]
Dietrich Buxtehude - Harald Vogel - Complete Organ Works
Johann Melchior Molter - Orchestral & Chamber Music
Georg Philipp Telemann - Musica Alta Ripa - Concertos and Chamber Music
Schumann - Trio Parnassus / Hariolf Schlichtig - Piano Quartet [CD Rip]
Schumann - Trio Parnassus / Hariolf Schlichtig - Piano Quartet [SACD Rip]
Christoph Graupner - Orchestral Works Vol. 3
Christoph Graupner - Orchestral Works Vol. 2
Christoph Graupner - Orchestral Works Vol. 1
Johann Sebastian Bach - Musica Alta Ripa - Solo Concertos Vol. 1
Albert Lortzing - Neue Detmolder Liedertafel - An den Frühling: Ernste und heitere Festgesänge für Männerstimmen
Musicalische Compagney - Lamenti & Concerti: Liebe und Klage in der Musik von Heinrich Schutz (1585-1672)
Franz Liszt - Tanski / Beethoven Orchester Bonn - Tasso, Totentanz, Piano Music [CD Rip]
Franz Liszt - Tanski / Beethoven Orchester Bonn - Tasso, Totentanz, Piano Music [SACD Rip]
Ottorino Respighi - Pini di Roma / Trittico / Tre Corali [CD Rip]
Ottorino Respighi - Pini di Roma / Trittico / Tre Corali [SACD Rip]
Berliner Vokalensemble ''Carl Maria von Weber'' - Bella Ciao
Berliner Vokalensemble ''Carl Maria von Weber'' - Kein schöner Land
George Frideric Handel - Belshazzar [HWV 61] (3xCD)
George Frideric Handel - Saul [HWV 53] (3xCD)
Johannes Brahms - Hardy Rittner - Early Piano Works Vol.1 [CD Rip]
Johannes Brahms - Hardy Rittner - Early Piano Works Vol.2 [CD Rip]
Johannes Brahms - Hardy Rittner - Early Piano Works Vol.2 [SACD Rip]
Johannes Brahms / Robert Schumann - Mozart Piano Quartet - Piano Quartets
Wolfgang Amadeus Mozart / Leipziger Streichquartett - The Ten Celebrated String Quartets
Norbert Schultze - Drops …unter der Laterne

Scharwenka - Trio Parnassus - Piano Trios - Cello Sonata (1994)

// classical music \\
// all of my uploads \\
________________

Download:

Filepost FLAC
Filepost Artwork
________________