Subcategories

School Of Fish - Human Cannonball (1993)

Posted By: muddboogers
School Of Fish -  Human Cannonball (1993)

School Of Fish - Human Cannonball (1993)
EAC | FLAC Image with CUE & LOG | 55:31 mins | Scans | RAR 2% Recovery | 397 MB
Alternative Rock | 1993 Capitol Records #CDP 0777 7 98930 2 7

1993's Human Cannonball was the second (and final) album from School of Fish, an alternative rock band that almost, but not quite, made it big when people cared about this kind of music. The single "3 Strange Days", from the band's debut album was a minor hit, but for whatever reason didn't bring the band much attention. This is a shame, because School of Fish was easily as good, if not better than, most of that era's other alternative rock bands.

Human Cannonball isn't quite as good as their excellent self-titled album. There are more "filler" songs on this album, but there are still plenty of great tracks as well. Strong songs like "Take Me Anywhere", "1/2 a Believer", "Stand in the Doorway", and especially "Kerosene" more than make up for the album's weaker songs. They're not overly poppy, but they are catchy enough to really stick in your head hours after you listen to the album. ~ Justin Gaines "Corporate Rocker", amazon.com
Human Cannonball @ Discogs

Tracklist:
1. Complicator
2. Take Me Anywhere
3. 1/2 A Believer
4. Fountain
5. Fuzzed And Fading
6. Blackout
7. Everyword
8. Jump Off The World
9. Drop Of Water
10. Drag
11. Stand In The Doorway
12. Kerosene
13. Lament (Unlisted Track)

Exact Audio Copy V0.99 prebeta 4 from 23. January 2008

EAC extraction logfile from 20. July 2010, 22:45

School of Fish / Human Cannonball

Used drive : Optiarc DVD RW AD-7203A Adapter: 0 ID: 0

Read mode : Secure
Utilize accurate stream : Yes
Defeat audio cache : Yes
Make use of C2 pointers : No

Read offset correction : 48
Overread into Lead-In and Lead-Out : No
Fill up missing offset samples with silence : Yes
Delete leading and trailing silent blocks : No
Null samples used in CRC calculations : Yes
Used interface : Native Win32 interface for Win NT & 2000

Used output format : Internal WAV Routines
Sample format : 44.100 Hz; 16 Bit; Stereo


TOC of the extracted CD

Track | Start | Length | Start sector | End sector
––––––––––––––––––––––––––––-
1 | 0:00.00 | 3:07.10 | 0 | 14034
2 | 3:07.10 | 4:45.32 | 14035 | 35441
3 | 7:52.42 | 3:17.65 | 35442 | 50281
4 | 11:10.32 | 6:16.30 | 50282 | 78511
5 | 17:26.62 | 5:05.13 | 78512 | 101399
6 | 22:32.00 | 3:29.47 | 101400 | 117121
7 | 26:01.47 | 3:37.35 | 117122 | 133431
8 | 29:39.07 | 4:16.45 | 133432 | 152676
9 | 33:55.52 | 3:50.28 | 152677 | 169954
10 | 37:46.05 | 5:20.42 | 169955 | 193996
11 | 43:06.47 | 3:16.30 | 193997 | 208726
12 | 46:23.02 | 6:28.65 | 208727 | 237891
13 | 52:51.67 | 2:39.18 | 237892 | 249834


Range status and errors

Selected range

Filename D:\RUTRACKER\School of Fish - Human Cannonball\School of Fish - Human Cannonball.wav

Peak level 100.0 %
Range quality 100.0 %
Test CRC 716B6E96
Copy CRC 716B6E96
Copy OK

No errors occurred


AccurateRip summary

Track 1 accurately ripped (confidence 13) [BF2B9909]
Track 2 accurately ripped (confidence 13) [234165D7]
Track 3 accurately ripped (confidence 13) [A93CF514]
Track 4 accurately ripped (confidence 13) [A51D5C87]
Track 5 accurately ripped (confidence 13) [FDAFABC2]
Track 6 accurately ripped (confidence 13) [6BB7ECA4]
Track 7 accurately ripped (confidence 13) [CF129DA5]
Track 8 accurately ripped (confidence 13) [EF8C0727]
Track 9 accurately ripped (confidence 13) [F2DA6819]
Track 10 accurately ripped (confidence 13) [2CFB998E]
Track 11 accurately ripped (confidence 13) [F73A6A31]
Track 12 accurately ripped (confidence 13) [B87F936D]
Track 13 accurately ripped (confidence 13) [18E49EA5]

All tracks accurately ripped

End of status report



More Fish:
School Of Fish - School Of Fish (1991)


Human Cannonball is NOT my rip or scan job. So, thanks to the original uploader, which, I believe is unrealpzdc.
FileServe
Part 1
Part 2

FileSonic
Part 1
Part 2

Interchangeable archives

Password: www.AvaxHome.ws