Subcategories

Franz Schubert & Anselm Huttenbrenner

Posted By: alekhno
Franz Schubert & Anselm Huttenbrenner

Franz Schubert - Adagio & Rondo Concertante
Anselm Huttenbrenner - Quintet in C minor

Classical | X Lossless Decoder Rip | Flac, CUE, LOG | 1 CD | Covers | 270 Mb | rs.com | 2001
Consortium Classicum, Dieter Klöcker


Franz Schubert
Adagio & Rondo Concertante, for piano quartet in F major, D. 487
Minuet for wind instruments in C major, D. 2d/1 (D. 995/1)
Minuet for wind instruments in F major, D. 2d/2 (D. 995/2)
Minuet for wind instruments in D major, D. 2d/3 (D. 995/3)
String Trio in B flat major, D. 471
Octet for wind instruments in F major (minuet and finale only), D. 72


Anselm Huttenbrenner (1794 – 1868)
Quintet in C minor, for 2 violins, 2 violas & cello




X Lossless Decoder version 20090215 (100.1)

XLD extraction logfile from 2009-04-06 20:15:40 +0400

Various Artists / Adagio & Rondo Concertante

Used drive : HL-DT-ST DVDRW GSA-S10N (revision AP12)

Use cdparanoia mode : NO
Disable audio cache : NO
Make use of C2 pointers : NO
Read offset correction : 667
Max retry count : 100

TOC of the extracted CD
Track | Start | Length | Start sector | End sector
––––––––––––––––––––––––––––-
1 | 00:00:00 | 05:23:00 | 0 | 24224
2 | 05:23:00 | 08:38:00 | 24225 | 63074
3 | 14:01:00 | 02:54:00 | 63075 | 76124
4 | 16:55:00 | 02:52:00 | 76125 | 89024
5 | 19:47:00 | 02:58:00 | 89025 | 102374
6 | 22:45:00 | 08:09:00 | 102375 | 139049
7 | 30:54:00 | 01:51:00 | 139050 | 147374
8 | 32:45:00 | 05:19:37 | 147375 | 171336
9 | 38:04:37 | 04:25:38 | 171337 | 191249
10 | 42:30:00 | 07:50:00 | 191250 | 226499
11 | 50:20:00 | 04:42:00 | 226500 | 247649
12 | 55:02:00 | 04:17:00 | 247650 | 266924
13 | 59:19:00 | 06:33:00 | 266925 | 296399

All Tracks
Filename : /Users/dmitry/Desktop/F.Schubert - A.Huttenbrenner - Consortium Classicum-Klocker/Adagio & Rondo Concertante.flac
CRC32 hash : 73294837
CRC32 hash (skip zero) : 7F5C6D0A

Track 01
CRC32 hash : 9C8D73F5
CRC32 hash (skip zero) : 69472298
AccurateRip signature : D820A581
->Track not present in AccurateRip database.

Track 02
CRC32 hash : A0A44A6F
CRC32 hash (skip zero) : 872909D6
AccurateRip signature : 16562514
->Track not present in AccurateRip database.

Track 03
CRC32 hash : C18BA232
CRC32 hash (skip zero) : DBB2190F
AccurateRip signature : 0D615E91
->Track not present in AccurateRip database.

Track 04
CRC32 hash : A8C3F386
CRC32 hash (skip zero) : 23BD5CF7
AccurateRip signature : 4CF1BCFC
->Track not present in AccurateRip database.

Track 05
CRC32 hash : 8A01BAB6
CRC32 hash (skip zero) : 1E71387A
AccurateRip signature : 2483B072
->Track not present in AccurateRip database.

Track 06
CRC32 hash : 79BAB625
CRC32 hash (skip zero) : E3B8B891
AccurateRip signature : 318770EC
->Track not present in AccurateRip database.

Track 07
CRC32 hash : 8361AE1B
CRC32 hash (skip zero) : 51FD2763
AccurateRip signature : 997BA879
->Track not present in AccurateRip database.

Track 08
CRC32 hash : 2C19386A
CRC32 hash (skip zero) : A91FD7CF
AccurateRip signature : 3C24A79F
->Track not present in AccurateRip database.

Track 09
CRC32 hash : F2230831
CRC32 hash (skip zero) : 37B24112
AccurateRip signature : D1747D37
->Track not present in AccurateRip database.

Track 10
CRC32 hash : 9E90DB4E
CRC32 hash (skip zero) : D623B537
AccurateRip signature : CD5EE763
->Track not present in AccurateRip database.

Track 11
CRC32 hash : 3FF2F7A1
CRC32 hash (skip zero) : 8AF3E2D4
AccurateRip signature : C6118618
->Track not present in AccurateRip database.

Track 12
CRC32 hash : E993C6BE
CRC32 hash (skip zero) : CBA7F7A8
AccurateRip signature : 9BB6A79A
->Track not present in AccurateRip database.

Track 13
CRC32 hash : AEE76326
CRC32 hash (skip zero) : 91BA32DB
AccurateRip signature : C487B26A
->Track not present in AccurateRip database.

End of status report


Label: CPO Records
999 801-2






PLEASE NO MIRRORS