Subcategories

Franz Schubert - Impromptus D 899, Sonata D 960 - Rudolf Buchbinder (2013) {Sony Classical 88883717422}

Posted By: ruskaval
Franz Schubert - Impromptus D 899, Sonata D 960 - Rudolf Buchbinder (2013) {Sony Classical 88883717422}

Franz Schubert - Impromptus D 899, Sonata D 960 - Rudolf Buchbinder (2013) {Sony Classical 88883717422}
EAC rip (secure mode) | FLAC (tracks)+CUE+LOG -> 204 Mb | MP3 @320 -> 165 Mb
Full Artwork @ 300 dpi (png) -> 85 Mb | 5% repair rar
© 2013 Sony Classical | 88883717422
Classical / Romantic / Piano

For decades, internationally acclaimed pianist Rudolf Buchbinder has been researching Schubert's original scores and early printed editions. With his new album, he offers an unequivocal interpretation of Schubert's much loved Impromptus D 899 and his last Sonata, D 960. Buchbinder is considered the one living pianist who personifies the Viennese classical tradition, and in keeping with that, Schubert was recorded live at the famed Golden Hall of the Musikverein in Vienna.
Veteran pianist Rudolf Buchbinder has recorded these Schubert works in the past, but entering his later career he has revisited familiar repertoire in live recordings. This one, from a Vienna auditorium, contains frustrating features, but its boldness brings an X factor that consistently holds the listener's interest. Buchbinder's general orientation in Schubert is not toward the chamber side, the select circle of friends who got what he was doing, but toward Schubert the large-scale thinker who understood Beethoven perhaps better than anyone else of his time. This is Schubert as high drama, not only in the Piano Sonata in B flat major, D. 960, but even in the four Impromptus, D. 899, which are anything but impromptus in Buchbinder's readings. Hear the fascinating tentative opening of the Impromptu No. 1 in C minor, or the extremely ominous rumbling that Buchbinder makes of the recurring low trill in the first movement of the sonata, generally treated as a kind of decorative transitional device. The latter is indicative of Buchbinder's serious, monumental approach to the sonata as a whole. Sometimes, as in the slow movement, you wonder what all the pounding is about. But the entire thing is both original and well-executed, and you tend to accept Buchbinder's argument that live performance brings a valuable spontaneous approach. Among the dozens of recordings of these pieces on the market, this one doesn't sound much like any other.
Franz Schubert - Impromptus D 899, Sonata D 960 - Rudolf Buchbinder (2013) {Sony Classical 88883717422}


Musicians
Rudolf Buchbinder - piano

Track Listing

01 - Four Impromptus, op.90 D 899 No.1 in C minor - Allegro molto moderato
02 - Four Impromptus, op.90 D 899 No.2 in E major - Allegro
03 - Four Impromptus, op.90 D 899 No.3 in G flat major - Andante
04 - Four Impromptus, op.90 D 899 No.4 in A flat major - Allegretto
05 - Sonata for Piano D 960 in B flat major - I. Molto moderato
06 - Sonata for Piano D 960 in B flat major - II. Andante sostenuto
07 - Sonata for Piano D 960 in B flat major - III. Scherzo. Allegro vivace
08 - Sonata for Piano D 960 in B flat major - IV. Allegro ma non troppo

Exact Audio Copy V1.1 from 23. June 2015

EAC extraction logfile from 12. August 2015, 4:11

Rudolf Buchbinder / Schubert - Impromptus D 899, Sonate D 960

Used drive : ASUS DRW-24B1ST i Adapter: 1 ID: 0

Read mode : Secure
Utilize accurate stream : Yes
Defeat audio cache : Yes
Make use of C2 pointers : No

Read offset correction : 6
Overread into Lead-In and Lead-Out : No
Fill up missing offset samples with silence : Yes
Delete leading and trailing silent blocks : No
Null samples used in CRC calculations : Yes
Used interface : Native Win32 interface for Win NT & 2000
Gap handling : Appended to previous track

Used output format : User Defined Encoder
Selected bitrate : 128 kBit/s
Quality : High
Add ID3 tag : No
Command line compressor : C:\Program Files (x86)\Exact Audio Copy\Flac\flac.exe
Additional command line options : -8 -V -T "ARTIST=%artist%" -T "TITLE=%title%" -T "ALBUM=%albumtitle%" -T "DATE=%year%" -T "TRACKNUMBER=%tracknr%" -T "TOTALTRACKS=%numtracks%" -T "GENRE=%genre%" -T "ALBUMARTIST=%albumartist%" -T "ALBUM ARTIST=%albumartist%" -T "COMMENT=EAC Secure Mode, Test & Copy, AccurateRip, FLAC -8" %source%


TOC of the extracted CD

Track | Start | Length | Start sector | End sector
––––––––––––––––––––––––––––-
1 | 0:00.00 | 9:46.57 | 0 | 44006
2 | 9:46.57 | 4:40.63 | 44007 | 65069
3 | 14:27.45 | 6:37.11 | 65070 | 94855
4 | 21:04.56 | 8:04.72 | 94856 | 131227
5 | 29:09.53 | 20:26.22 | 131228 | 223199
6 | 49:36.00 | 9:10.73 | 223200 | 264522
7 | 58:46.73 | 4:08.69 | 264523 | 283191
8 | 62:55.67 | 8:03.05 | 283192 | 319421


Track 1

Filename D:\_Post\Buchbinder\01 - Four Impromptus, op.90 D 899 No.1 in C minor - Allegro molto moderato.wav

Pre-gap length 0:00:02.00

Peak level 90.8 %
Extraction speed 5.9 X
Track quality 100.0 %
Test CRC 21C801E4
Copy CRC 21C801E4
Accurately ripped (confidence 10) [60AFC6C2] (AR v2)
Copy OK

Track 2

Filename D:\_Post\Buchbinder\02 - Four Impromptus, op.90 D 899 No.2 in E major - Allegro.wav

Peak level 76.5 %
Extraction speed 6.0 X
Track quality 99.9 %
Test CRC 00945C66
Copy CRC 00945C66
Accurately ripped (confidence 10) [3F661AB1] (AR v2)
Copy OK

Track 3

Filename D:\_Post\Buchbinder\03 - Four Impromptus, op.90 D 899 No.3 in G flat major - Andante.wav

Peak level 56.0 %
Extraction speed 7.5 X
Track quality 100.0 %
Test CRC 9C754EFC
Copy CRC 9C754EFC
Accurately ripped (confidence 10) [BFDB0299] (AR v2)
Copy OK

Track 4

Filename D:\_Post\Buchbinder\04 - Four Impromptus, op.90 D 899 No.4 in A flat major - Allegretto.wav

Peak level 78.6 %
Extraction speed 8.1 X
Track quality 100.0 %
Test CRC C1D33198
Copy CRC C1D33198
Accurately ripped (confidence 10) [7CF58FC8] (AR v2)
Copy OK

Track 5

Filename D:\_Post\Buchbinder\05 - Sonata for Piano D 960 in B flat major - I. Molto moderato.wav

Peak level 97.1 %
Extraction speed 8.7 X
Track quality 100.0 %
Test CRC A87F3F44
Copy CRC A87F3F44
Accurately ripped (confidence 10) [0C44632B] (AR v2)
Copy OK

Track 6

Filename D:\_Post\Buchbinder\06 - Sonata for Piano D 960 in B flat major - II. Andante sostenuto.wav

Peak level 73.8 %
Extraction speed 10.1 X
Track quality 100.0 %
Test CRC 6567E48F
Copy CRC 6567E48F
Accurately ripped (confidence 10) [2A7C2466] (AR v2)
Copy OK

Track 7

Filename D:\_Post\Buchbinder\07 - Sonata for Piano D 960 in B flat major - III. Scherzo. Allegro vivace.wav

Peak level 65.6 %
Extraction speed 10.0 X
Track quality 100.0 %
Test CRC B98B6473
Copy CRC B98B6473
Accurately ripped (confidence 10) [04C59E1D] (AR v2)
Copy OK

Track 8

Filename D:\_Post\Buchbinder\08 - Sonata for Piano D 960 in B flat major - IV. Allegro ma non troppo.wav

Peak level 97.3 %
Extraction speed 9.9 X
Track quality 99.9 %
Test CRC 8EAB1A96
Copy CRC 8EAB1A96
Accurately ripped (confidence 10) [D2638A83] (AR v2)
Copy OK


All tracks accurately ripped

No errors occurred

End of status report

–– CUETools DB Plugin V2.1.6

[CTDB TOCID: ITcUFznENiEB5bPHhcFHY0seM7c-] found
Submit result: ITcUFznENiEB5bPHhcFHY0seM7c- has been confirmed
Track | CTDB Status
1 | (6/6) Accurately ripped
2 | (6/6) Accurately ripped
3 | (6/6) Accurately ripped
4 | (6/6) Accurately ripped
5 | (6/6) Accurately ripped
6 | (6/6) Accurately ripped
7 | (6/6) Accurately ripped
8 | (6/6) Accurately ripped


==== Log checksum 4F0C92996EC113C27EF644B1FE270680DF65BAE714EA8FD459582BC26F8DF6F2 ====


Franz Schubert - Impromptus D 899, Sonata D 960 - Rudolf Buchbinder (2013) {Sony Classical 88883717422}



===