Subcategories

Schubert - Piano Sonatas, Impromptus - Andras Schiff (2011) {9CD Set Decca 478 3018 rec 1990-1995}

Posted By: ruskaval
Schubert - Piano Sonatas, Impromptus - Andras Schiff (2011) {9CD Set Decca 478 3018 rec 1990-1995}

Schubert - Piano Sonatas, Impromptus - Andras Schiff (2011) {9CD Set Decca 478 3018 rec 1990-1995}
EAC rip (secure mode) | FLAC (tracks)+CUE+LOG -> 1.75 Gb | MP3 @320 -> 1.47 Gb
Full Artwork @ 300 dpi (png) -> 94 Mb | 5% repair rar
© 1990-95, 2011 Decca Music | 478 3018
Classical / Romantic / Piano

When András Schiff completed the recording of all of Schubert's piano sonatas in the 1990s, Decca released a box set containing all of the individual discs from the series. For this 2011 reissue, Decca goes one step further and includes Schiff's recordings of the Impromptus, the Moments musicaux, and several other shorter works. Schubert's music, along with that of Bach and Mozart, is one of the cornerstones upon which Schiff built his reputation as a thoughtful and intelligent performer. Anyone looking for a complete set of the Schubert sonatas could do much worse than to choose this one by one of the foremost Schubert interpreters of his generation.
Schubert - Piano Sonatas, Impromptus - Andras Schiff (2011) {9CD Set Decca 478 3018 rec 1990-1995}


Decca INFO
arkivmusic.com INFO


Musicians:
András Schiff - piano (Bösendorfer)

Track Listing:

CD 1 - 478 3019 {70.44}

Piano Sonata No.1 in E major, D157
01. I. Allegro, ma non troppo
02. II. Andante
03. III. Menuetto: Allegro vivace — Trio
Piano Sonata No.13 in A major, D664
04. I. Allegro moderato
05. II. Andante
06. III. Allegro
Piano Sonata No.3 in E major, D459 (Fünf Klavierstücke)
07. I. Allegro moderato
08. II. Scherzo: Allegro
09. III. Adagio
10. IV. Scherzo: Allegro — Trio: Più tardo
11. V. Allegro patetico

CD 2 - 478 3020 [70.11]
Piano Sonata No.15 in C major, D840 "Reliquie"
01. I. Moderato
02. II. Andante
Piano Sonata No.16 in A minor, D845
03. I. Moderato
04. II. Andante, poco mosso
05. III. Scherzo: Allegro vivace — Trio: Un poco più lento
06. IV. Rondo: Allegro vivace
Piano Sonata No.8 in F sharp minor (fragment), D571
07. I. Allegro moderato

CD 3 - 478 3021 [74.28]
Piano Sonata No.6 in E minor, D566
01. I. Moderato
02. II. Allegretto
Piano Sonata No.14 in A minor, D784 "Grande Sonate"
03. I. Allegro giusto
04. II. Andante
05. III. Allegro vivace
Piano Sonata No.17 in D major, D850 "Gasteiner"
06. I. Allegro vivace
07. II. Con moto
08. III. Scherzo: Allegro vivace — Trio
09. IV. Rondo: Allegro moderato

CD 4 - 478 3022 [75.50]
Piano Sonata No.5 in A flat major, D557
01. I. Allegro moderato
02. II. Andante
03. III. Allegro
Piano Sonata No.9 in B major, D575
04. I. Allegro, ma non troppo
05. II. Andante
06. III. Scherzo: Allegretto
07. IV. Allegro giusto
Piano Sonata No.18 in G major, D894 "Fantasie"
08. I. Molto moderato e cantabile
09. II. Andante
10. III. Menuetto: Allegro moderato — Trio
11. IV. Allegretto

CD 5 - 478 3023 [60.21]
Piano Sonata No.7 in E flat major, D568
01. I. Allegro moderato
02. II. Andante molto
03. III. Menuetto: Allegro — Trio
04. IV. Allegro moderato
Piano Sonata No.19 in C minor, D958
05. I. Allegro
06. II. Adagio
07. III. Menuetto: Allegro — Trio
08. IV. Allegro

CD 6 - 478 3024 [65.21]
Piano Sonata No.4 in A minor, D537
01. I. Allegro, ma non troppo
02. II. Allegretto, quasi Andantino
03. III. Allegro vivace
Piano Sonata No.20 in A major, D959
04. I. Allegro
05. II. Andantino
06. III. Scherzo: Allegro vivace
07. IV. Rondo: Allegretto

CD 7 - 478 3025 [78.06]
Piano Sonata No.2 in C major (unfinished), D279
01. I. Allegro moderato
02. II. Andante
03. III. Menuetto: Allegro vivace — Trio
Piano Sonata No.11 in F minor (fragment), D625
04. I. Allegro
05. II. Scherzo: Allegretto — Trio
06. III. Allegro
Piano Sonata No.21 in B flat major, D960
07. I. Molto moderato
08. II. Andante sostenuto
09. III. Scherzo: Allegro vivace con delicatezza — Trio
10. IV. Allegro, ma non troppo

CD 8 - 478 3026 [70.27]
01. Hungarian Melody in B minor, D817
4 Impromptus, D899
02. No.1 in C minor: Allegro molto moderato
03. No.2 in E flat major: Allegro
04. No.3 in G flat major: Andante
05. No.4 in A flat major: Allegretto
6 Deutsche Tänze, D820
06. No.1 in A flat major: Tempo giusto
07. No.2 in A flat major
08. No.3 in A flat major
09. No.4 in B flat major
10. No.5 in B flat major
11. No.6 in B flat major: Ligato
Moments musicaux, D780
Book 1
12. No.1 in C major: Moderato
13. No.2 in A flat major: Andantino
14. No.3 in F minor: Allegro moderato
Book 2
15. No.4 in C sharp minor: Moderato
16. No.5 in F minor: Allegro vivace
17. No.6 in A flat major: Allegretto
18. Grazer Galopp, D925

CD 9 - 478 3027 [73.55]
01. Allegretto in C minor, D915
3 Klavierstücke, D946
02. No.1 in E flat minor: Allegro assai — Andante — Andantino
03. No.2 in E flat major: Allegretto — Listesso tempo
04. No.3 in C major: Allegro
12 Deutsche Tänze (ländler), D790
05. No.1 in D major
No.2 in A major
No.3 in D major
No.4 in D major
No.5 in B minor
No.6 in G sharp minor
No.7 in A flat major
No.8 in A flat minor
No.9 in B major
No.10 in B major
No.11 in A flat major
No.12 in E major
4 Impromptus, D935
06. No.1 in F minor: Allegro moderato
07. No.2 in in A flat major: Allegretto
08. No.3 in B flat major: Theme (Andante) and variations
09. No.4 in F minor: Allegro scherzando

Recording locations: Brahms-Saal, Konzerthaus, Vienna, November 1992 (CD 1, [1]-[6], CDs 2-5, CD 6 [1]-[3], CD 7 [1]-[3]), April 1993 (CD 1 [7]-[11], CD 6 [4]-[7], CD 7 [4]-[10]);
Mozart-Saal, Konzerthaus, Vienna, August 1988 (CD 9), January 1990 (CD 8)


Exact Audio Copy V1.0 beta 4 from 7. December 2014

EAC extraction logfile from 25. March 2015, 10:15

Schubert / Piano Sonatas - Andras Schiff

Used drive : TSSTcorpCDDVDW SH-216BB Adapter: 1 ID: 0

Read mode : Secure
Utilize accurate stream : Yes
Defeat audio cache : Yes
Make use of C2 pointers : No

Read offset correction : 6
Overread into Lead-In and Lead-Out : No
Fill up missing offset samples with silence : Yes
Delete leading and trailing silent blocks : No
Null samples used in CRC calculations : Yes
Used interface : Native Win32 interface for Win NT & 2000
Gap handling : Appended to previous track

Used output format : User Defined Encoder
Selected bitrate : 896 kBit/s
Quality : High
Add ID3 tag : No
Command line compressor : C:\Program Files (x86)\Exact Audio Copy\Flac\flac.exe
Additional command line options : -6 -V -T "ARTIST=%artist%" -T "TITLE=%title%" -T "ALBUM=%albumtitle%" -T "DATE=%year%" -T "PERFORMER=%albuminterpret%" -T "TRACKNUMBER=%tracknr%" -T "TOTALTRACKS=%numtracks%" -T "GENRE=%genre%" -T "COMPOSER=%composer%" -T "ALBUMARTIST=%albumartist%" -T "ALBUM ARTIST=%albumartist%" -T "COMMENT=EAC Secure Mode, Test & Copy, AccurateRip, FLAC -6" %source%


TOC of the extracted CD

Track | Start | Length | Start sector | End sector
––––––––––––––––––––––––––––-
1 | 0:00.32 | 8:25.65 | 32 | 37971
2 | 8:26.22 | 6:56.43 | 37972 | 69214
3 | 15:22.65 | 4:12.25 | 69215 | 88139
4 | 19:35.15 | 11:07.20 | 88140 | 138184
5 | 30:42.35 | 4:12.02 | 138185 | 157086
6 | 34:54.37 | 8:33.20 | 157087 | 195581
7 | 43:27.57 | 7:07.33 | 195582 | 227639
8 | 50:35.15 | 4:44.25 | 227640 | 248964
9 | 55:19.40 | 5:34.00 | 248965 | 274014
10 | 60:53.40 | 3:30.67 | 274015 | 289831
11 | 64:24.32 | 6:58.53 | 289832 | 321234


Track 1

Filename D:\EAC extraction\01 - No.1 in E major, D157 - I. Allegro, ma non troppo.wav

Pre-gap length 0:00:02.32

Peak level 36.1 %
Extraction speed 2.2 X
Track quality 100.0 %
Test CRC 8665B180
Copy CRC 8665B180
Accurately ripped (confidence 9) [0A77109F] (AR v2)
Copy OK

Track 2

Filename D:\EAC extraction\02 - No.1 in E major, D157 - II. Andante.wav

Peak level 33.1 %
Extraction speed 2.2 X
Track quality 100.0 %
Test CRC DEDD0C4D
Copy CRC DEDD0C4D
Accurately ripped (confidence 9) [7EFA2529] (AR v2)
Copy OK

Track 3

Filename D:\EAC extraction\03 - No.1 in E major, D157 - III. Menuetto; Allegro vivace - Trio.wav

Pre-gap length 0:00:01.33

Peak level 41.1 %
Extraction speed 1.8 X
Track quality 99.9 %
Test CRC 248A3713
Copy CRC 248A3713
Accurately ripped (confidence 9) [7B8CE0BE] (AR v2)
Copy OK

Track 4

Filename D:\EAC extraction\04 - No.13 in A major, D664 - I. Allegro moderato.wav

Pre-gap length 0:00:11.13

Peak level 63.9 %
Extraction speed 2.2 X
Track quality 100.0 %
Test CRC 6CE27563
Copy CRC 6CE27563
Accurately ripped (confidence 9) [03F1A001] (AR v2)
Copy OK

Track 5

Filename D:\EAC extraction\05 - No.13 in A major, D664 - II. Andante.wav

Pre-gap length 0:00:06.43

Peak level 38.4 %
Extraction speed 2.0 X
Track quality 100.0 %
Test CRC 532253B9
Copy CRC 532253B9
Accurately ripped (confidence 9) [FE0708A7] (AR v2)
Copy OK

Track 6

Filename D:\EAC extraction\06 - No.13 in A major, D664 - III. Allegro.wav

Pre-gap length 0:00:02.35

Peak level 54.2 %
Extraction speed 2.0 X
Track quality 99.9 %
Test CRC 5A5313AC
Copy CRC 5A5313AC
Accurately ripped (confidence 9) [EA4CA606] (AR v2)
Copy OK

Track 7

Filename D:\EAC extraction\07 - No.3 in E major, D459 - I. Allegro moderato.wav

Pre-gap length 0:00:13.37

Peak level 47.6 %
Extraction speed 2.1 X
Track quality 100.0 %
Test CRC AEB5BC97
Copy CRC AEB5BC97
Accurately ripped (confidence 9) [1AF36E9D] (AR v2)
Copy OK

Track 8

Filename D:\EAC extraction\08 - No.3 in E major, D459 - II. Scherzo; Allegro.wav

Peak level 53.1 %
Extraction speed 2.1 X
Track quality 100.0 %
Test CRC B67B445C
Copy CRC B67B445C
Accurately ripped (confidence 8) [EA8F737C] (AR v2)
Copy OK

Track 9

Filename D:\EAC extraction\09 - No.3 in E major, D459 - III. Adagio.wav

Pre-gap length 0:00:02.40

Peak level 39.3 %
Extraction speed 1.9 X
Track quality 99.9 %
Test CRC 3CC3CF4B
Copy CRC 3CC3CF4B
Accurately ripped (confidence 9) [6DAAD340] (AR v2)
Copy OK

Track 10

Filename D:\EAC extraction\10 - No.3 in E major, D459 - IV. Scherzo; Allegro - Trio; Piu tardo.wav

Pre-gap length 0:00:01.65

Peak level 39.6 %
Extraction speed 2.0 X
Track quality 100.0 %
Test CRC 9B15526F
Copy CRC 9B15526F
Accurately ripped (confidence 9) [F03B3D45] (AR v2)
Copy OK

Track 11

Filename D:\EAC extraction\11 - No.3 in E major, D459 - V. Allegro patetico.wav

Peak level 54.9 %
Extraction speed 2.1 X
Track quality 100.0 %
Test CRC E6F845CD
Copy CRC E6F845CD
Accurately ripped (confidence 9) [65D3EF84] (AR v2)
Copy OK


All tracks accurately ripped

No errors occurred

End of status report

==== Log checksum D2118CF84A8E4D5885CAEC373D0BE17EF2D2415C9ABFDD5A9AAB2A6EF43BB0C5 ====

––––––––––––––––––––––––––––––

Exact Audio Copy V1.0 beta 4 from 7. December 2014

EAC extraction logfile from 25. March 2015, 12:08

Schubert / Piano Sonatas - Andras Schiff

Used drive : TSSTcorpCDDVDW SH-216BB Adapter: 1 ID: 0

Read mode : Secure
Utilize accurate stream : Yes
Defeat audio cache : Yes
Make use of C2 pointers : No

Read offset correction : 6
Overread into Lead-In and Lead-Out : No
Fill up missing offset samples with silence : Yes
Delete leading and trailing silent blocks : No
Null samples used in CRC calculations : Yes
Used interface : Native Win32 interface for Win NT & 2000
Gap handling : Appended to previous track

Used output format : User Defined Encoder
Selected bitrate : 896 kBit/s
Quality : High
Add ID3 tag : No
Command line compressor : C:\Program Files (x86)\Exact Audio Copy\Flac\flac.exe
Additional command line options : -6 -V -T "ARTIST=%artist%" -T "TITLE=%title%" -T "ALBUM=%albumtitle%" -T "DATE=%year%" -T "PERFORMER=%albuminterpret%" -T "TRACKNUMBER=%tracknr%" -T "TOTALTRACKS=%numtracks%" -T "GENRE=%genre%" -T "COMPOSER=%composer%" -T "ALBUMARTIST=%albumartist%" -T "ALBUM ARTIST=%albumartist%" -T "COMMENT=EAC Secure Mode, Test & Copy, AccurateRip, FLAC -6" %source%


TOC of the extracted CD

Track | Start | Length | Start sector | End sector
––––––––––––––––––––––––––––-
1 | 0:00.33 | 16:59.37 | 33 | 76494
2 | 16:59.70 | 9:51.63 | 76495 | 120882
3 | 26:51.58 | 11:28.00 | 120883 | 172482
4 | 38:19.58 | 11:54.12 | 172483 | 226044
5 | 50:13.70 | 7:52.63 | 226045 | 261507
6 | 58:06.58 | 5:24.12 | 261508 | 285819
7 | 63:30.70 | 7:05.38 | 285820 | 317732


Track 1

Filename D:\EAC extraction\01 - No.15 in C major, D840 - I. Moderato.wav

Pre-gap length 0:00:02.33

Peak level 67.8 %
Extraction speed 2.3 X
Track quality 100.0 %
Test CRC CE1389D2
Copy CRC CE1389D2
Accurately ripped (confidence 10) [0DB26FC0] (AR v2)
Copy OK

Track 2

Filename D:\EAC extraction\02 - No.15 in C major, D840 - II. Andante.wav

Pre-gap length 0:00:02.12

Peak level 59.5 %
Extraction speed 2.2 X
Track quality 100.0 %
Test CRC A0356DB3
Copy CRC A0356DB3
Accurately ripped (confidence 10) [A8A3754B] (AR v2)
Copy OK

Track 3

Filename D:\EAC extraction\03 - No.16 in A minor, D845 - I. Moderato.wav

Pre-gap length 0:00:09.50

Peak level 59.9 %
Extraction speed 2.2 X
Track quality 100.0 %
Test CRC 2E74248A
Copy CRC 2E74248A
Accurately ripped (confidence 10) [5DE8290F] (AR v2)
Copy OK

Track 4

Filename D:\EAC extraction\04 - No.16 in A minor, D845 - II. Andante, poco mosso.wav

Pre-gap length 0:00:02.00

Peak level 44.2 %
Extraction speed 2.2 X
Track quality 100.0 %
Test CRC CA4CB144
Copy CRC CA4CB144
Accurately ripped (confidence 10) [7B5F386C] (AR v2)
Copy OK

Track 5

Filename D:\EAC extraction\05 - No.16 in A minor, D845 - III. Scherzo; Allegro vivace - Trio; Un poco piu lento.wav

Pre-gap length 0:00:01.62

Peak level 58.3 %
Extraction speed 2.2 X
Track quality 100.0 %
Test CRC 161DEB4B
Copy CRC 161DEB4B
Accurately ripped (confidence 9) [51C7AB89] (AR v2)
Copy OK

Track 6

Filename D:\EAC extraction\06 - No.16 in A minor, D845 - IV. Rondo; Allegro vivace.wav

Peak level 56.7 %
Extraction speed 2.1 X
Track quality 100.0 %
Test CRC 5646FB16
Copy CRC 5646FB16
Accurately ripped (confidence 10) [04652D4D] (AR v2)
Copy OK

Track 7

Filename D:\EAC extraction\07 - No.8 in F sharp minor, D571 - I. Allegro moderato.wav

Pre-gap length 0:00:09.12

Peak level 15.5 %
Extraction speed 2.1 X
Track quality 100.0 %
Test CRC DC24C649
Copy CRC DC24C649
Accurately ripped (confidence 10) [4B0C4F95] (AR v2)
Copy OK


All tracks accurately ripped

No errors occurred

End of status report

==== Log checksum A71717F1721608B2D64932881A2B5F2A4F7EB9FAF8B092C018652815451F3A9D ====

––––––––––––––––––––––––––––––

Exact Audio Copy V1.0 beta 4 from 7. December 2014

EAC extraction logfile from 25. March 2015, 13:42

Schubert / Piano Sonatas - Andras Schiff

Used drive : TSSTcorpCDDVDW SH-216BB Adapter: 1 ID: 0

Read mode : Secure
Utilize accurate stream : Yes
Defeat audio cache : Yes
Make use of C2 pointers : No

Read offset correction : 6
Overread into Lead-In and Lead-Out : No
Fill up missing offset samples with silence : Yes
Delete leading and trailing silent blocks : No
Null samples used in CRC calculations : Yes
Used interface : Native Win32 interface for Win NT & 2000
Gap handling : Appended to previous track

Used output format : User Defined Encoder
Selected bitrate : 896 kBit/s
Quality : High
Add ID3 tag : No
Command line compressor : C:\Program Files (x86)\Exact Audio Copy\Flac\flac.exe
Additional command line options : -6 -V -T "ARTIST=%artist%" -T "TITLE=%title%" -T "ALBUM=%albumtitle%" -T "DATE=%year%" -T "PERFORMER=%albuminterpret%" -T "TRACKNUMBER=%tracknr%" -T "TOTALTRACKS=%numtracks%" -T "GENRE=%genre%" -T "COMPOSER=%composer%" -T "ALBUMARTIST=%albumartist%" -T "ALBUM ARTIST=%albumartist%" -T "COMMENT=EAC Secure Mode, Test & Copy, AccurateRip, FLAC -6" %source%


TOC of the extracted CD

Track | Start | Length | Start sector | End sector
––––––––––––––––––––––––––––-
1 | 0:00.32 | 6:04.68 | 32 | 27399
2 | 6:05.25 | 8:19.50 | 27400 | 64874
3 | 14:25.00 | 12:24.25 | 64875 | 120699
4 | 26:49.25 | 4:12.00 | 120700 | 139599
5 | 31:01.25 | 5:47.25 | 139600 | 165649
6 | 36:48.50 | 9:21.62 | 165650 | 207786
7 | 46:10.37 | 11:07.63 | 207787 | 257874
8 | 57:18.25 | 8:47.25 | 257875 | 297424
9 | 66:05.50 | 8:48.37 | 297425 | 337061


Track 1

Filename D:\EAC extraction\01 - No.6 in E minor, D566 - I. Moderato.wav

Pre-gap length 0:00:02.32

Peak level 40.9 %
Extraction speed 2.1 X
Track quality 100.0 %
Test CRC E2DE3718
Copy CRC E2DE3718
Accurately ripped (confidence 10) [1D41C319] (AR v2)
Copy OK

Track 2

Filename D:\EAC extraction\02 - No.6 in E minor, D566 - II. Allegretto.wav

Peak level 40.3 %
Extraction speed 2.0 X
Track quality 99.9 %
Test CRC 8E02ADB8
Copy CRC 8E02ADB8
Accurately ripped (confidence 10) [8F13EEC5] (AR v2)
Copy OK

Track 3

Filename D:\EAC extraction\03 - No.14 in A minor, D784 - I. Allegro giusto.wav

Pre-gap length 0:00:09.13

Peak level 65.8 %
Extraction speed 2.1 X
Track quality 99.9 %
Test CRC 81485544
Copy CRC 81485544
Accurately ripped (confidence 10) [FF58F0FA] (AR v2)
Copy OK

Track 4

Filename D:\EAC extraction\04 - No.14 in A minor, D784 - II. Andante.wav

Pre-gap length 0:00:01.00

Peak level 63.7 %
Extraction speed 1.8 X
Track quality 99.9 %
Test CRC 8C68D3AC
Copy CRC 8C68D3AC
Accurately ripped (confidence 10) [C2CF4B5C] (AR v2)
Copy OK

Track 5

Filename D:\EAC extraction\05 - No.14 in A minor, D784 - III. Allegro vivace.wav

Peak level 72.1 %
Extraction speed 2.1 X
Track quality 100.0 %
Test CRC 7967FA14
Copy CRC 7967FA14
Accurately ripped (confidence 10) [CE37FEC7] (AR v2)
Copy OK

Track 6

Filename D:\EAC extraction\06 - No.17 in D major, D850 - I. Allegro.wav

Pre-gap length 0:00:09.00

Peak level 58.9 %
Extraction speed 2.2 X
Track quality 100.0 %
Test CRC 97482F30
Copy CRC 97482F30
Accurately ripped (confidence 10) [B730682F] (AR v2)
Copy OK

Track 7

Filename D:\EAC extraction\07 - No.17 in D major, D850 - II. Con moto.wav

Pre-gap length 0:00:03.12

Peak level 55.7 %
Extraction speed 2.2 X
Track quality 100.0 %
Test CRC F814EE17
Copy CRC F814EE17
Accurately ripped (confidence 10) [4B3C53D6] (AR v2)
Copy OK

Track 8

Filename D:\EAC extraction\08 - No.17 in D major, D850 - III. Scherzo; Allegro vivace - Trio.wav

Pre-gap length 0:00:01.50

Peak level 47.2 %
Extraction speed 2.2 X
Track quality 100.0 %
Test CRC 2B7DBBEE
Copy CRC 2B7DBBEE
Accurately ripped (confidence 10) [0ABFEFE7] (AR v2)
Copy OK

Track 9

Filename D:\EAC extraction\09 - No.17 in D major, D850 - IV. Rondo; Allegro moderato.wav

Peak level 39.5 %
Extraction speed 2.2 X
Track quality 100.0 %
Test CRC D53495C1
Copy CRC D53495C1
Accurately ripped (confidence 10) [3564D1C5] (AR v2)
Copy OK


All tracks accurately ripped

No errors occurred

End of status report

==== Log checksum BA8115575190C15E82BD2BF9B0374ABE4133899BCE9250A0991EC3C65813B1CE ====

––––––––––––––––––––––––––––––

Exact Audio Copy V1.0 beta 4 from 7. December 2014

EAC extraction logfile from 25. March 2015, 16:10

Schubert / Piano Sonatas - Andras Schiff

Used drive : TSSTcorpCDDVDW SH-216BB Adapter: 1 ID: 0

Read mode : Secure
Utilize accurate stream : Yes
Defeat audio cache : Yes
Make use of C2 pointers : No

Read offset correction : 6
Overread into Lead-In and Lead-Out : No
Fill up missing offset samples with silence : Yes
Delete leading and trailing silent blocks : No
Null samples used in CRC calculations : Yes
Used interface : Native Win32 interface for Win NT & 2000
Gap handling : Appended to previous track

Used output format : User Defined Encoder
Selected bitrate : 896 kBit/s
Quality : High
Add ID3 tag : No
Command line compressor : C:\Program Files (x86)\Exact Audio Copy\Flac\flac.exe
Additional command line options : -6 -V -T "ARTIST=%artist%" -T "TITLE=%title%" -T "ALBUM=%albumtitle%" -T "DATE=%year%" -T "PERFORMER=%albuminterpret%" -T "TRACKNUMBER=%tracknr%" -T "TOTALTRACKS=%numtracks%" -T "GENRE=%genre%" -T "COMPOSER=%composer%" -T "ALBUMARTIST=%albumartist%" -T "ALBUM ARTIST=%albumartist%" -T "COMMENT=EAC Secure Mode, Test & Copy, AccurateRip, FLAC -6" %source%


TOC of the extracted CD

Track | Start | Length | Start sector | End sector
––––––––––––––––––––––––––––-
1 | 0:00.32 | 4:15.25 | 32 | 19181
2 | 4:15.57 | 3:36.38 | 19182 | 35419
3 | 7:52.20 | 4:49.12 | 35420 | 57106
4 | 12:41.32 | 8:43.00 | 57107 | 96331
5 | 21:24.32 | 5:21.25 | 96332 | 120431
6 | 26:45.57 | 5:24.38 | 120432 | 144769
7 | 32:10.20 | 5:39.62 | 144770 | 170256
8 | 37:50.07 | 16:46.63 | 170257 | 245769
9 | 54:36.70 | 7:53.12 | 245770 | 281256
10 | 62:30.07 | 4:29.55 | 281257 | 301486
11 | 66:59.62 | 9:19.58 | 301487 | 343469


Track 1

Filename D:\EAC extraction\01 - No.5 in A flat major, D557 - I. Allegro moderato.wav

Pre-gap length 0:00:02.32

Peak level 39.3 %
Extraction speed 2.0 X
Track quality 100.0 %
Test CRC C7DD3DA6
Copy CRC C7DD3DA6
Accurately ripped (confidence 8) [8B2850FF] (AR v2)
Copy OK

Track 2

Filename D:\EAC extraction\02 - No.5 in A flat major, D557 - II. Andante.wav

Peak level 34.7 %
Extraction speed 2.0 X
Track quality 100.0 %
Test CRC AD0CAC5D
Copy CRC AD0CAC5D
Accurately ripped (confidence 8) [A539E97D] (AR v2)
Copy OK

Track 3

Filename D:\EAC extraction\03 - No.5 in A flat major, D557 - III. Allegro.wav

Peak level 49.0 %
Extraction speed 1.9 X
Track quality 99.9 %
Test CRC 2670A906
Copy CRC 2670A906
Accurately ripped (confidence 8) [6B22AC54] (AR v2)
Copy OK

Track 4

Filename D:\EAC extraction\04 - No.9 in B major, D575 - I. Allegro, ma non troppo.wav

Pre-gap length 0:00:10.62

Peak level 45.0 %
Extraction speed 2.2 X
Track quality 100.0 %
Test CRC 395F0B9D
Copy CRC 395F0B9D
Accurately ripped (confidence 8) [6EBB3C21] (AR v2)
Copy OK

Track 5

Filename D:\EAC extraction\05 - No.9 in B major, D575 - II. Andante.wav

Pre-gap length 0:00:02.12

Peak level 54.4 %
Extraction speed 1.9 X
Track quality 99.9 %
Test CRC 44246DD4
Copy CRC 44246DD4
Accurately ripped (confidence 8) [731E3835] (AR v2)
Copy OK

Track 6

Filename D:\EAC extraction\06 - No.9 in B major, D575 - III. Scherzo; Allegretto.wav

Pre-gap length 0:00:01.62

Peak level 43.6 %
Extraction speed 2.1 X
Track quality 100.0 %
Test CRC 676798F1
Copy CRC 676798F1
Accurately ripped (confidence 8) [9E2B4F04] (AR v2)
Copy OK

Track 7

Filename D:\EAC extraction\07 - No.9 in B major, D575 - IV. Allegro giusto.wav

Peak level 46.9 %
Extraction speed 2.1 X
Track quality 100.0 %
Test CRC 6218A4AD
Copy CRC 6218A4AD
Accurately ripped (confidence 8) [97232DCC] (AR v2)
Copy OK

Track 8

Filename D:\EAC extraction\08 - No.18 in G major, D894 - I. Molto moderato e cantabile.wav

Pre-gap length 0:00:10.25

Peak level 61.3 %
Extraction speed 2.3 X
Track quality 100.0 %
Test CRC 085A2E25
Copy CRC 085A2E25
Accurately ripped (confidence 8) [F26EA347] (AR v2)
Copy OK

Track 9

Filename D:\EAC extraction\09 - No.18 in G major, D894 - II. Andante.wav

Pre-gap length 0:00:02.38

Peak level 54.6 %
Extraction speed 2.2 X
Track quality 100.0 %
Test CRC 8CDDAB40
Copy CRC 8CDDAB40
Accurately ripped (confidence 8) [D9B68922] (AR v2)
Copy OK

Track 10

Filename D:\EAC extraction\10 - No.18 in G major, D894 - III. Menuetto; Allegro moderato - Trio.wav

Pre-gap length 0:00:01.62

Peak level 43.6 %
Extraction speed 2.0 X
Track quality 100.0 %
Test CRC F91030A3
Copy CRC F91030A3
Accurately ripped (confidence 9) [707C812A] (AR v2)
Copy OK

Track 11

Filename D:\EAC extraction\11 - No.18 in G major, D894 - IV. Allegretto.wav

Peak level 43.3 %
Extraction speed 2.0 X
Track quality 99.9 %
Test CRC 60CE0F6C
Copy CRC 60CE0F6C
Accurately ripped (confidence 9) [AA59E6AC] (AR v2)
Copy OK


All tracks accurately ripped

No errors occurred

End of status report

==== Log checksum C4AD97E163B7C0036804CA258BD747E0FE4FA2CF1DE59284BA0F22BC40C5E4CF ====

––––––––––––––––––––––––––––––

Exact Audio Copy V1.0 beta 4 from 7. December 2014

EAC extraction logfile from 25. March 2015, 17:32

Schubert / Piano Sonatas - Andras Schiff

Used drive : TSSTcorpCDDVDW SH-216BB Adapter: 1 ID: 0

Read mode : Secure
Utilize accurate stream : Yes
Defeat audio cache : Yes
Make use of C2 pointers : No

Read offset correction : 6
Overread into Lead-In and Lead-Out : No
Fill up missing offset samples with silence : Yes
Delete leading and trailing silent blocks : No
Null samples used in CRC calculations : Yes
Used interface : Native Win32 interface for Win NT & 2000
Gap handling : Appended to previous track

Used output format : User Defined Encoder
Selected bitrate : 896 kBit/s
Quality : High
Add ID3 tag : No
Command line compressor : C:\Program Files (x86)\Exact Audio Copy\Flac\flac.exe
Additional command line options : -6 -V -T "ARTIST=%artist%" -T "TITLE=%title%" -T "ALBUM=%albumtitle%" -T "DATE=%year%" -T "PERFORMER=%albuminterpret%" -T "TRACKNUMBER=%tracknr%" -T "TOTALTRACKS=%numtracks%" -T "GENRE=%genre%" -T "COMPOSER=%composer%" -T "ALBUMARTIST=%albumartist%" -T "ALBUM ARTIST=%albumartist%" -T "COMMENT=EAC Secure Mode, Test & Copy, AccurateRip, FLAC -6" %source%


TOC of the extracted CD

Track | Start | Length | Start sector | End sector
––––––––––––––––––––––––––––-
1 | 0:00.32 | 9:58.73 | 32 | 44954
2 | 9:59.30 | 5:28.45 | 44955 | 69599
3 | 15:28.00 | 4:31.37 | 69600 | 89961
4 | 19:59.37 | 9:37.33 | 89962 | 133269
5 | 29:36.70 | 11:02.05 | 133270 | 182924
6 | 40:39.00 | 7:44.30 | 182925 | 217754
7 | 48:23.30 | 2:59.72 | 217755 | 231251
8 | 51:23.27 | 9:23.00 | 231252 | 273476


Track 1

Filename D:\EAC extraction\01 - No.7 in E flat major, D568 - I. Allegro moderato.wav

Pre-gap length 0:00:02.32

Peak level 42.7 %
Extraction speed 2.2 X
Track quality 100.0 %
Test CRC EB5629E7
Copy CRC EB5629E7
Accurately ripped (confidence 9) [4D74377C] (AR v2)
Copy OK

Track 2

Filename D:\EAC extraction\02 - No.7 in E flat major, D568 - II. Andante molto.wav

Pre-gap length 0:00:04.10

Peak level 33.8 %
Extraction speed 2.1 X
Track quality 100.0 %
Test CRC 9B89713F
Copy CRC 9B89713F
Accurately ripped (confidence 9) [346CBA23] (AR v2)
Copy OK

Track 3

Filename D:\EAC extraction\03 - No.7 in E flat major, D568 - III. Menuetto; Allegro - Trio.wav

Pre-gap length 0:00:02.25

Peak level 22.1 %
Extraction speed 2.1 X
Track quality 100.0 %
Test CRC A527FB4B
Copy CRC A527FB4B
Accurately ripped (confidence 9) [696D7D5C] (AR v2)
Copy OK

Track 4

Filename D:\EAC extraction\04 - No.7 in E flat major, D568 - IV. Allegro moderato.wav

Peak level 34.8 %
Extraction speed 2.2 X
Track quality 100.0 %
Test CRC 4F8460A3
Copy CRC 4F8460A3
Accurately ripped (confidence 9) [FA48CA5F] (AR v2)
Copy OK

Track 5

Filename D:\EAC extraction\05 - No.19 in C minor, D958 - I. Allegro.wav

Pre-gap length 0:00:13.03

Peak level 77.2 %
Extraction speed 2.2 X
Track quality 100.0 %
Test CRC CDC5D509
Copy CRC CDC5D509
Accurately ripped (confidence 9) [B9F1C6A1] (AR v2)
Copy OK

Track 6

Filename D:\EAC extraction\06 - No.19 in C minor, D958 - II. Adagio.wav

Pre-gap length 0:00:03.30

Peak level 60.7 %
Extraction speed 2.2 X
Track quality 100.0 %
Test CRC 08769F52
Copy CRC 08769F52
Accurately ripped (confidence 9) [EB4BDB83] (AR v2)
Copy OK

Track 7

Filename D:\EAC extraction\07 - No.19 in C minor, D958 - III. Menuetto; Allegro - Trio.wav

Pre-gap length 0:00:01.18

Peak level 39.6 %
Extraction speed 1.9 X
Track quality 100.0 %
Test CRC A8FB9C91
Copy CRC A8FB9C91
Accurately ripped (confidence 9) [1AF1633D] (AR v2)
Copy OK

Track 8

Filename D:\EAC extraction\08 - No.19 in C minor, D958 - IV. Allegro.wav

Peak level 73.1 %
Extraction speed 2.2 X
Track quality 100.0 %
Test CRC B8D8C709
Copy CRC B8D8C709
Accurately ripped (confidence 9) [36ED495C] (AR v2)
Copy OK


All tracks accurately ripped

No errors occurred

End of status report

==== Log checksum 37812DCD4A9F13341602F0145B6557D78DCC0EE0E5BB2C18508126120A1D21DF ====

––––––––––––––––––––––––––––––

Exact Audio Copy V1.0 beta 4 from 7. December 2014

EAC extraction logfile from 25. March 2015, 19:24

Schubert / Piano Sonatas - Andras Schiff

Used drive : TSSTcorpCDDVDW SH-216BB Adapter: 1 ID: 0

Read mode : Secure
Utilize accurate stream : Yes
Defeat audio cache : Yes
Make use of C2 pointers : No

Read offset correction : 6
Overread into Lead-In and Lead-Out : No
Fill up missing offset samples with silence : Yes
Delete leading and trailing silent blocks : No
Null samples used in CRC calculations : Yes
Used interface : Native Win32 interface for Win NT & 2000
Gap handling : Appended to previous track

Used output format : User Defined Encoder
Selected bitrate : 896 kBit/s
Quality : High
Add ID3 tag : No
Command line compressor : C:\Program Files (x86)\Exact Audio Copy\Flac\flac.exe
Additional command line options : -6 -V -T "ARTIST=%artist%" -T "TITLE=%title%" -T "ALBUM=%albumtitle%" -T "DATE=%year%" -T "PERFORMER=%albuminterpret%" -T "TRACKNUMBER=%tracknr%" -T "TOTALTRACKS=%numtracks%" -T "GENRE=%genre%" -T "COMPOSER=%composer%" -T "ALBUMARTIST=%albumartist%" -T "ALBUM ARTIST=%albumartist%" -T "COMMENT=EAC Secure Mode, Test & Copy, AccurateRip, FLAC -6" %source%


TOC of the extracted CD

Track | Start | Length | Start sector | End sector
––––––––––––––––––––––––––––-
1 | 0:00.32 | 11:14.10 | 32 | 50591
2 | 11:14.42 | 8:18.73 | 50592 | 88014
3 | 19:33.40 | 4:55.25 | 88015 | 110164
4 | 24:28.65 | 16:27.17 | 110165 | 184206
5 | 40:56.07 | 7:17.45 | 184207 | 217026
6 | 48:13.52 | 5:13.35 | 217027 | 240536
7 | 53:27.12 | 12:25.00 | 240537 | 296411


Track 1

Filename D:\EAC extraction\01 - No.4 in A minor, D537 - I. Allegro, ma non troppo.wav

Pre-gap length 0:00:02.32

Peak level 55.3 %
Extraction speed 2.2 X
Track quality 100.0 %
Test CRC 0A06F651
Copy CRC 0A06F651
Accurately ripped (confidence 9) [EFBE675F] (AR v2)
Copy OK

Track 2

Filename D:\EAC extraction\02 - No.4 in A minor, D537 - II. Allegretto, quasi andantino.wav

Pre-gap length 0:00:03.25

Peak level 32.4 %
Extraction speed 2.0 X
Track quality 99.9 %
Test CRC 580347D1
Copy CRC 580347D1
Accurately ripped (confidence 9) [9C3400EF] (AR v2)
Copy OK

Track 3

Filename D:\EAC extraction\03 - No.4 in A minor, D537 - III. Allegro vivace.wav

Pre-gap length 0:00:01.30

Peak level 62.5 %
Extraction speed 2.1 X
Track quality 100.0 %
Test CRC D84A4264
Copy CRC D84A4264
Accurately ripped (confidence 9) [B7F856C9] (AR v2)
Copy OK

Track 4

Filename D:\EAC extraction\04 - No.20 in A major, D959 - I. Allegro.wav

Pre-gap length 0:00:11.45

Peak level 62.7 %
Extraction speed 2.3 X
Track quality 100.0 %
Test CRC 90EEC35C
Copy CRC 90EEC35C
Accurately ripped (confidence 9) [0826AAB9] (AR v2)
Copy OK

Track 5

Filename D:\EAC extraction\05 - No.20 in A major, D959 - II. Andantino.wav

Pre-gap length 0:00:07.45

Peak level 76.2 %
Extraction speed 2.0 X
Track quality 99.9 %
Test CRC D401B679
Copy CRC D401B679
Accurately ripped (confidence 9) [F6199D60] (AR v2)
Copy OK

Track 6

Filename D:\EAC extraction\06 - No.20 in A major, D959 - III. Scherzo; Allegro vivace.wav

Pre-gap length 0:00:08.05

Peak level 56.2 %
Extraction speed 2.1 X
Track quality 100.0 %
Test CRC 405527F8
Copy CRC 405527F8
Accurately ripped (confidence 9) [4D81720C] (AR v2)
Copy OK

Track 7

Filename D:\EAC extraction\07 - No.20 in A major, D959 - IV. Rondo; Allegretto.wav

Pre-gap length 0:00:00.01

Peak level 72.3 %
Extraction speed 2.1 X
Track quality 99.9 %
Test CRC 758A1FF4
Copy CRC 758A1FF4
Accurately ripped (confidence 10) [F3C1182F] (AR v2)
Copy OK


All tracks accurately ripped

No errors occurred

End of status report

==== Log checksum F8CA3133F05EA0F2CABFE7927AC524169975E68E29951949B6072E2BF33DC285 ====

––––––––––––––––––––––––––––––

Exact Audio Copy V1.0 beta 4 from 7. December 2014

EAC extraction logfile from 25. March 2015, 21:59

Schubert / Piano Sonatas - Andras Schiff

Used drive : TSSTcorpCDDVDW SH-216BB Adapter: 1 ID: 0

Read mode : Secure
Utilize accurate stream : Yes
Defeat audio cache : Yes
Make use of C2 pointers : No

Read offset correction : 6
Overread into Lead-In and Lead-Out : No
Fill up missing offset samples with silence : Yes
Delete leading and trailing silent blocks : No
Null samples used in CRC calculations : Yes
Used interface : Native Win32 interface for Win NT & 2000
Gap handling : Appended to previous track

Used output format : User Defined Encoder
Selected bitrate : 896 kBit/s
Quality : High
Add ID3 tag : No
Command line compressor : C:\Program Files (x86)\Exact Audio Copy\Flac\flac.exe
Additional command line options : -6 -V -T "ARTIST=%artist%" -T "TITLE=%title%" -T "ALBUM=%albumtitle%" -T "DATE=%year%" -T "PERFORMER=%albuminterpret%" -T "TRACKNUMBER=%tracknr%" -T "TOTALTRACKS=%numtracks%" -T "GENRE=%genre%" -T "COMPOSER=%composer%" -T "ALBUMARTIST=%albumartist%" -T "ALBUM ARTIST=%albumartist%" -T "COMMENT=EAC Secure Mode, Test & Copy, AccurateRip, FLAC -6" %source%


TOC of the extracted CD

Track | Start | Length | Start sector | End sector
––––––––––––––––––––––––––––-
1 | 0:00.32 | 9:23.25 | 32 | 42281
2 | 9:23.57 | 5:11.38 | 42282 | 65644
3 | 14:35.20 | 3:41.12 | 65645 | 82231
4 | 18:16.32 | 7:34.38 | 82232 | 116319
5 | 25:50.70 | 4:41.25 | 116320 | 137419
6 | 30:32.20 | 5:59.00 | 137420 | 164344
7 | 36:31.20 | 20:03.62 | 164345 | 254631
8 | 56:35.07 | 9:00.25 | 254632 | 295156
9 | 65:35.32 | 3:58.63 | 295157 | 313069
10 | 69:34.20 | 9:14.50 | 313070 | 354669


Track 1

Filename D:\EAC extraction\01 - No.2 in C major, D279 - I. Allegro moderato.wav

Pre-gap length 0:00:02.32

Peak level 65.5 %
Extraction speed 2.2 X
Track quality 100.0 %
Test CRC DD993741
Copy CRC DD993741
Accurately ripped (confidence 10) [B075B88A] (AR v2)
Copy OK

Track 2

Filename D:\EAC extraction\02 - No.2 in C major, D279 - II. Andante.wav

Peak level 32.0 %
Extraction speed 2.1 X
Track quality 100.0 %
Test CRC 43A73013
Copy CRC 43A73013
Accurately ripped (confidence 10) [887B418F] (AR v2)
Copy OK

Track 3

Filename D:\EAC extraction\03 - No.2 in C major, D279 - III. Menuetto; Allegro vivace - Trio.wav

Peak level 52.8 %
Extraction speed 2.0 X
Track quality 100.0 %
Test CRC 016A5D39
Copy CRC 016A5D39
Accurately ripped (confidence 10) [DA71FF57] (AR v2)
Copy OK

Track 4

Filename D:\EAC extraction\04 - No.11 in F minor, D625 - I. Allegro.wav

Pre-gap length 0:00:10.12

Peak level 42.4 %
Extraction speed 2.0 X
Track quality 99.9 %
Test CRC 19C1FB04
Copy CRC 19C1FB04
Accurately ripped (confidence 10) [B529D7E3] (AR v2)
Copy OK

Track 5

Filename D:\EAC extraction\05 - No.11 in F minor, D625 - II. Scherzo; Allegretto - Trio.wav

Pre-gap length 0:00:01.50

Peak level 65.9 %
Extraction speed 2.1 X
Track quality 100.0 %
Test CRC 2FC2367D
Copy CRC 2FC2367D
Accurately ripped (confidence 10) [EAF937F7] (AR v2)
Copy OK

Track 6

Filename D:\EAC extraction\06 - No.11 in F minor, D625 - III. Allegro.wav

Peak level 69.3 %
Extraction speed 2.1 X
Track quality 100.0 %
Test CRC 9BC83893
Copy CRC 9BC83893
Accurately ripped (confidence 10) [D202A812] (AR v2)
Copy OK

Track 7

Filename D:\EAC extraction\07 - No.21 in B flat major, D960 - I. Molto moderato.wav

Pre-gap length 0:00:12.38

Peak level 74.4 %
Extraction speed 2.2 X
Track quality 99.9 %
Test CRC 170B11E5
Copy CRC 170B11E5
Accurately ripped (confidence 10) [751F3D3E] (AR v2)
Copy OK

Track 8

Filename D:\EAC extraction\08 - No.21 in B flat major, D960 - II. Andante sostenuto.wav

Pre-gap length 0:00:09.12

Peak level 31.8 %
Extraction speed 2.2 X
Track quality 100.0 %
Test CRC 32081B73
Copy CRC 32081B73
Accurately ripped (confidence 10) [79F5163D] (AR v2)
Copy OK

Track 9

Filename D:\EAC extraction\09 - No.21 in B flat major, D960 - III. Scherzo; Allegro vivace con delicatezza.wav

Pre-gap length 0:00:09.37

Peak level 32.7 %
Extraction speed 2.0 X
Track quality 100.0 %
Test CRC F381286C
Copy CRC F381286C
Accurately ripped (confidence 10) [9D2A2D6F] (AR v2)
Copy OK

Track 10

Filename D:\EAC extraction\10 - No.21 in B flat major, D960 - IV. Allegro, ma non troppo.wav

Peak level 91.1 %
Extraction speed 2.2 X
Track quality 100.0 %
Test CRC AC51B36D
Copy CRC AC51B36D
Accurately ripped (confidence 10) [CE536A93] (AR v2)
Copy OK


All tracks accurately ripped

No errors occurred

End of status report

==== Log checksum 90F07C4BD32E7150C6B4FAF2AE6CE32ABFE9D43CD53505D9DFDB17CDDC03D7E0 ====

––––––––––––––––––––––––––––––

Exact Audio Copy V1.0 beta 4 from 7. December 2014

EAC extraction logfile from 26. March 2015, 18:12

Schubert / Piano Works - Andras Schiff

Used drive : TSSTcorpCDDVDW SH-216BB Adapter: 1 ID: 0

Read mode : Secure
Utilize accurate stream : Yes
Defeat audio cache : Yes
Make use of C2 pointers : No

Read offset correction : 6
Overread into Lead-In and Lead-Out : No
Fill up missing offset samples with silence : Yes
Delete leading and trailing silent blocks : No
Null samples used in CRC calculations : Yes
Used interface : Native Win32 interface for Win NT & 2000
Gap handling : Appended to previous track

Used output format : User Defined Encoder
Selected bitrate : 896 kBit/s
Quality : High
Add ID3 tag : No
Command line compressor : C:\Program Files (x86)\Exact Audio Copy\Flac\flac.exe
Additional command line options : -6 -V -T "ARTIST=%artist%" -T "TITLE=%title%" -T "ALBUM=%albumtitle%" -T "DATE=%year%" -T "PERFORMER=%albuminterpret%" -T "TRACKNUMBER=%tracknr%" -T "TOTALTRACKS=%numtracks%" -T "GENRE=%genre%" -T "COMPOSER=%composer%" -T "ALBUMARTIST=%albumartist%" -T "ALBUM ARTIST=%albumartist%" -T "COMMENT=EAC Secure Mode, Test & Copy, AccurateRip, FLAC -6" %source%


TOC of the extracted CD

Track | Start | Length | Start sector | End sector
––––––––––––––––––––––––––––-
1 | 0:00.33 | 3:50.25 | 33 | 17307
2 | 3:50.58 | 10:11.00 | 17308 | 63132
3 | 14:01.58 | 4:53.25 | 63133 | 85132
4 | 18:55.08 | 5:21.62 | 85133 | 109269
5 | 24:16.70 | 7:50.13 | 109270 | 144532
6 | 32:07.08 | 0:33.12 | 144533 | 147019
7 | 32:40.20 | 1:00.25 | 147020 | 151544
8 | 33:40.45 | 1:00.50 | 151545 | 156094
9 | 34:41.20 | 0:49.63 | 156095 | 159832
10 | 35:31.08 | 1:03.17 | 159833 | 164574
11 | 36:34.25 | 1:40.20 | 164575 | 172094
12 | 38:14.45 | 6:26.38 | 172095 | 201082
13 | 44:41.08 | 6:27.37 | 201083 | 230144
14 | 51:08.45 | 2:04.25 | 230145 | 239469
15 | 53:12.70 | 5:37.13 | 239470 | 264757
16 | 58:50.08 | 2:31.37 | 264758 | 276119
17 | 61:21.45 | 7:32.13 | 276120 | 310032
18 | 68:53.58 | 2:10.37 | 310033 | 319819


Track 1

Filename D:\EAC extraction\01 - Hungarian Melody in B minor, D817.wav

Pre-gap length 0:00:02.33

Peak level 47.1 %
Extraction speed 2.0 X
Track quality 100.0 %
Test CRC 6783ABC7
Copy CRC 6783ABC7
Accurately ripped (confidence 16) [5FC8DADD] (AR v2)
Copy OK

Track 2

Filename D:\EAC extraction\02 - 4 Impromptus, D899 - No.1 in C minor; Allegro molto moderato.wav

Pre-gap length 0:00:05.00

Peak level 83.0 %
Extraction speed 2.2 X
Track quality 100.0 %
Test CRC 6BB5543E
Copy CRC 6BB5543E
Accurately ripped (confidence 16) [F53C10F2] (AR v2)
Copy OK

Track 3

Filename D:\EAC extraction\03 - 4 Impromptus, D899 - No.2 in E flat major; Allegro.wav

Peak level 96.8 %
Extraction speed 2.1 X
Track quality 100.0 %
Test CRC 2FB24216
Copy CRC 2FB24216
Accurately ripped (confidence 16) [75CF737C] (AR v2)
Copy OK

Track 4

Filename D:\EAC extraction\04 - 4 Impromptus, D899 - No.3 in G flat major; Andante.wav

Pre-gap length 0:00:01.25

Peak level 46.2 %
Extraction speed 2.1 X
Track quality 100.0 %
Test CRC DF08F0A0
Copy CRC DF08F0A0
Accurately ripped (confidence 16) [F4454179] (AR v2)
Copy OK

Track 5

Filename D:\EAC extraction\05 - 4 Impromptus, D899 - No.4 in A flat major; Allegretto.wav

Pre-gap length 0:00:03.25

Peak level 96.8 %
Extraction speed 2.2 X
Track quality 100.0 %
Test CRC 1CAD954F
Copy CRC 1CAD954F
Accurately ripped (confidence 16) [EF2A837C] (AR v2)
Copy OK

Track 6

Filename D:\EAC extraction\06 - 6 Deutsche Tanze, D820 - No.1 in A flat major; Tempo giusto.wav

Pre-gap length 0:00:04.50

Peak level 37.2 %
Extraction speed 1.1 X
Track quality 100.0 %
Test CRC BEA9A8E7
Copy CRC BEA9A8E7
Accurately ripped (confidence 15) [7631ADFA] (AR v2)
Copy OK

Track 7

Filename D:\EAC extraction\07 - 6 Deutsche Tanze, D820 - No.2 in A flat major.wav

Peak level 30.8 %
Extraction speed 1.4 X
Track quality 100.0 %
Test CRC 8CD422AC
Copy CRC 8CD422AC
Accurately ripped (confidence 15) [C56F448C] (AR v2)
Copy OK

Track 8

Filename D:\EAC extraction\08 - 6 Deutsche Tanze, D820 - No.3 in A flat major.wav

Peak level 34.4 %
Extraction speed 1.4 X
Track quality 100.0 %
Test CRC 77E719D7
Copy CRC 77E719D7
Accurately ripped (confidence 15) [820CBD42] (AR v2)
Copy OK

Track 9

Filename D:\EAC extraction\09 - 6 Deutsche Tanze, D820 - No.4 in B flat major.wav

Peak level 51.7 %
Extraction speed 1.3 X
Track quality 100.0 %
Test CRC F75BB3AD
Copy CRC F75BB3AD
Accurately ripped (confidence 15) [CDC80D81] (AR v2)
Copy OK

Track 10

Filename D:\EAC extraction\10 - 6 Deutsche Tanze, D820 - No.5 in B flat major.wav

Peak level 51.4 %
Extraction speed 1.4 X
Track quality 100.0 %
Test CRC 30C59926
Copy CRC 30C59926
Accurately ripped (confidence 15) [1D60ADAF] (AR v2)
Copy OK

Track 11

Filename D:\EAC extraction\11 - 6 Deutsche Tanze, D820 - No.6 in B flat major; Ligato.wav

Peak level 59.1 %
Extraction speed 1.3 X
Track quality 99.8 %
Test CRC D4465CDD
Copy CRC D4465CDD
Accurately ripped (confidence 15) [D66BAB74] (AR v2)
Copy OK

Track 12

Filename D:\EAC extraction\12 - Moments musicaux, D780 - No.1 in C major; Moderato.wav

Pre-gap length 0:00:06.25

Peak level 56.7 %
Extraction speed 2.1 X
Track quality 100.0 %
Test CRC F87F4666
Copy CRC F87F4666
Accurately ripped (confidence 16) [3165F8E4] (AR v2)
Copy OK

Track 13

Filename D:\EAC extraction\13 - Moments musicaux, D780 - No.2 in A flat major; Andantino.wav

Pre-gap length 0:00:01.00

Peak level 68.2 %
Extraction speed 2.1 X
Track quality 100.0 %
Test CRC 6EA7070B
Copy CRC 6EA7070B
Accurately ripped (confidence 16) [7970BF74] (AR v2)
Copy OK

Track 14

Filename D:\EAC extraction\14 - Moments musicaux, D780 - No.3 in F minor; Allegretto moderato.wav

Pre-gap length 0:00:02.63

Peak level 41.4 %
Extraction speed 1.8 X
Track quality 100.0 %
Test CRC 67C7D2AD
Copy CRC 67C7D2AD
Accurately ripped (confidence 16) [B1BF4802] (AR v2)
Copy OK

Track 15

Filename D:\EAC extraction\15 - Moments musicaux, D780 - No.4 in C sharp minor; Moderato.wav

Pre-gap length 0:00:02.25

Peak level 31.9 %
Extraction speed 2.1 X
Track quality 100.0 %
Test CRC F1E3CC31
Copy CRC F1E3CC31
Accurately ripped (confidence 16) [69DFD47A] (AR v2)
Copy OK

Track 16

Filename D:\EAC extraction\16 - Moments musicaux, D780 - No.5 in F minor; Allegro vivace.wav

Pre-gap length 0:00:02.13

Peak level 90.0 %
Extraction speed 1.9 X
Track quality 100.0 %
Test CRC C8556BD7
Copy CRC C8556BD7
Accurately ripped (confidence 16) [792C4E20] (AR v2)
Copy OK

Track 17

Filename D:\EAC extraction\17 - Moments musicaux, D780 - No.6 in A flat major; Allegretto.wav

Pre-gap length 0:00:02.25

Peak level 46.0 %
Extraction speed 2.0 X
Track quality 99.9 %
Test CRC 38DD9982
Copy CRC 38DD9982
Accurately ripped (confidence 16) [B29BAD71] (AR v2)
Copy OK

Track 18

Filename D:\EAC extraction\18 - Grazer Galopp, D925.wav

Pre-gap length 0:00:05.50

Peak level 73.7 %
Extraction speed 1.5 X
Track quality 99.9 %
Test CRC 3D9ADDF7
Copy CRC 3D9ADDF7
Accurately ripped (confidence 15) [5B89A709] (AR v2)
Copy OK


All tracks accurately ripped

No errors occurred

End of status report

==== Log checksum 579872A93E75965EF5044E88BA6DA2661AFC7FAF5B31BB79F07088B8ABAAD3D2 ====

––––––––––––––––––––––––––––––

Exact Audio Copy V1.0 beta 4 from 7. December 2014

EAC extraction logfile from 26. March 2015, 21:43

Schubert / Piano Works - Andras Schiff

Used drive : TSSTcorpCDDVDW SH-216BB Adapter: 1 ID: 0

Read mode : Secure
Utilize accurate stream : Yes
Defeat audio cache : Yes
Make use of C2 pointers : No

Read offset correction : 6
Overread into Lead-In and Lead-Out : No
Fill up missing offset samples with silence : Yes
Delete leading and trailing silent blocks : No
Null samples used in CRC calculations : Yes
Used interface : Native Win32 interface for Win NT & 2000
Gap handling : Appended to previous track

Used output format : User Defined Encoder
Selected bitrate : 896 kBit/s
Quality : High
Add ID3 tag : No
Command line compressor : C:\Program Files (x86)\Exact Audio Copy\Flac\flac.exe
Additional command line options : -6 -V -T "ARTIST=%artist%" -T "TITLE=%title%" -T "ALBUM=%albumtitle%" -T "DATE=%year%" -T "PERFORMER=%albuminterpret%" -T "TRACKNUMBER=%tracknr%" -T "TOTALTRACKS=%numtracks%" -T "GENRE=%genre%" -T "COMPOSER=%composer%" -T "ALBUMARTIST=%albumartist%" -T "ALBUM ARTIST=%albumartist%" -T "COMMENT=EAC Secure Mode, Test & Copy, AccurateRip, FLAC -6" %source%


TOC of the extracted CD

Track | Start | Length | Start sector | End sector
––––––––––––––––––––––––––––-
1 | 0:00.33 | 5:14.57 | 33 | 23639
2 | 5:15.15 | 7:48.55 | 23640 | 58794
3 | 13:03.70 | 10:38.50 | 58795 | 106694
4 | 23:42.45 | 5:17.33 | 106695 | 130502
5 | 29:00.03 | 10:28.12 | 130503 | 177614
6 | 39:28.15 | 10:31.28 | 177615 | 224967
7 | 49:59.43 | 6:22.67 | 224968 | 253684
8 | 56:22.35 | 11:32.50 | 253685 | 305634
9 | 67:55.10 | 6:30.68 | 305635 | 334952


Track 1

Filename D:\EAC extraction\01 - Allegretto in C minor, D915.wav

Pre-gap length 0:00:02.33

Peak level 82.3 %
Extraction speed 2.1 X
Track quality 100.0 %
Test CRC 67D99FA0
Copy CRC 67D99FA0
Accurately ripped (confidence 9) [96EF6493] (AR v2)
Copy OK

Track 2

Filename D:\EAC extraction\02 - 3 Klavierstucke, D946 - No.1 in E flat minor; Allegro assai - Andante.wav

Pre-gap length 0:00:03.23

Peak level 95.4 %
Extraction speed 2.2 X
Track quality 100.0 %
Test CRC 57784907
Copy CRC 57784907
Accurately ripped (confidence 9) [9C2BCD36] (AR v2)
Copy OK

Track 3

Filename D:\EAC extraction\03 - 3 Klavierstucke, D946 - No.2 in E flat major; Allegretto - Listesso tempo.wav

Pre-gap length 0:00:01.55

Peak level 61.1 %
Extraction speed 2.2 X
Track quality 100.0 %
Test CRC 153BD9E2
Copy CRC 153BD9E2
Accurately ripped (confidence 9) [FF537508] (AR v2)
Copy OK

Track 4

Filename D:\EAC extraction\04 - 3 Klavierstucke, D946 - No.3 in C major; Allegro.wav

Pre-gap length 0:00:02.00

Peak level 74.5 %
Extraction speed 2.1 X
Track quality 100.0 %
Test CRC 53CC2513
Copy CRC 53CC2513
Accurately ripped (confidence 9) [12437DD7] (AR v2)
Copy OK

Track 5

Filename D:\EAC extraction\05 - 12 Deutsche Tanze, D790.wav

Pre-gap length 0:00:09.10

Peak level 77.9 %
Extraction speed 2.1 X
Track quality 99.9 %
Test CRC DE36831E
Copy CRC DE36831E
Accurately ripped (confidence 9) [C7A361DD] (AR v2)
Copy OK

Track 6

Filename D:\EAC extraction\06 - 4 Impromptus, D935 - No.1 in F minor; Allegro moderato.wav

Pre-gap length 0:00:07.68

Peak level 64.6 %
Extraction speed 2.2 X
Track quality 100.0 %
Test CRC 07C38946
Copy CRC 07C38946
Accurately ripped (confidence 9) [B71CCE8E] (AR v2)
Copy OK

Track 7

Filename D:\EAC extraction\07 - 4 Impromptus, D935 - No.2 in A flat major; Allegretto.wav

Peak level 78.5 %
Extraction speed 2.1 X
Track quality 100.0 %
Test CRC 4E0A99E8
Copy CRC 4E0A99E8
Accurately ripped (confidence 9) [F64F8F73] (AR v2)
Copy OK

Track 8

Filename D:\EAC extraction\08 - 4 Impromptus, D935 - No.3 in B flat major; Theme (Andante) and variations.wav

Pre-gap length 0:00:02.73

Peak level 61.6 %
Extraction speed 2.2 X
Track quality 100.0 %
Test CRC 583D00AE
Copy CRC 583D00AE
Accurately ripped (confidence 9) [CC6689BC] (AR v2)
Copy OK

Track 9

Filename D:\EAC extraction\09 - 4 Impromptus, D935 - No.4 in F minor; Allegro scherzando.wav

Pre-gap length 0:00:02.13

Peak level 69.1 %
Extraction speed 2.1 X
Track quality 100.0 %
Test CRC 7768FDAF
Copy CRC 7768FDAF
Accurately ripped (confidence 9) [7A5678FA] (AR v2)
Copy OK


All tracks accurately ripped

No errors occurred

End of status report

==== Log checksum F19A326AF980ED48D1B4AA4E13E651F4E82560E7332379707B654C511B61B220 ====


Schubert - Piano Sonatas, Impromptus - Andras Schiff (2011) {9CD Set Decca 478 3018 rec 1990-1995}

Schubert - Piano Sonatas, Impromptus - Andras Schiff (2011) {9CD Set Decca 478 3018 rec 1990-1995}

Schubert - Piano Sonatas, Impromptus - Andras Schiff (2011) {9CD Set Decca 478 3018 rec 1990-1995}

Schubert - Piano Sonatas, Impromptus - Andras Schiff (2011) {9CD Set Decca 478 3018 rec 1990-1995}



===