Schubert, Sawallisch - Sacred & Secular Choral Works [EMI 5099902847429] {Europe 2011} (11 CD Box)

Posted By: luckburz
Schubert, Sawallisch - Sacred & Secular Choral Works [EMI 5099902847429] {Europe 2011} (11 CD Box)

Franz Schubert - Das geistliche & weltliche Chorwerk / Sacred & Secular Choral Works
EAC+LOG+CUE | FLAC: 3,04 GB | MP3 CBR 320: 1,78 GB | Full Artwork | 5% Recovery Info
Label/Cat#: EMI 5099902847429 | Country/Year: Europe 2011
Genre: Classical | Style: Vocal

MD5 [X] CUE [X] LOG [X] INFO TEXT [X] ARTWORK [X]

webfind [] selfrip [X]

Schubert, Sawallisch - Sacred & Secular Choral Works [EMI 5099902847429] {Europe 2011} (11 CD Box)



Exact Audio Copy V1.0 beta 2 from 29. April 2011

EAC extraction logfile from 22. May 2012, 11:49

Wolfgang Sawallisch / CD1 - Das geistliche & weltliche Chorwerk

Used drive : PIONEER BD-RW BDR-206 Adapter: 2 ID: 3

Read mode : Secure
Utilize accurate stream : Yes
Defeat audio cache : Yes
Make use of C2 pointers : No

Read offset correction : 667
Overread into Lead-In and Lead-Out : No
Fill up missing offset samples with silence : Yes
Delete leading and trailing silent blocks : No
Null samples used in CRC calculations : Yes
Used interface : Native Win32 interface for Win NT & 2000

Used output format : User Defined Encoder
Selected bitrate : 896 kBit/s
Quality : High
Add ID3 tag : No
Command line compressor : C:\Program Files\FLAC\flac.exe
Additional command line options : -5 -T "Artist=%artist%" -T "Title=%title%" -T "Album=%albumtitle%" -T "Date=%year%" -T "Tracknumber=%tracknr%" -T "Genre=%genre%" %source% -o %dest%


TOC of the extracted CD

Track | Start | Length | Start sector | End sector
––––––––––––––––––––––––––––-
1 | 0:00.00 | 2:35.01 | 0 | 11625
2 | 2:35.01 | 5:34.07 | 11626 | 36682
3 | 8:09.08 | 7:44.21 | 36683 | 71503
4 | 15:53.29 | 12:18.58 | 71504 | 126911
5 | 28:12.12 | 8:32.60 | 126912 | 165371
6 | 36:44.72 | 2:16.72 | 165372 | 175643
7 | 39:01.69 | 4:24.09 | 175644 | 195452
8 | 43:26.03 | 12:28.73 | 195453 | 251625
9 | 55:55.01 | 3:44.54 | 251626 | 268479
10 | 59:39.55 | 2:43.35 | 268480 | 280739
11 | 62:23.15 | 3:45.06 | 280740 | 297620
12 | 66:08.21 | 1:15.44 | 297621 | 303289
13 | 67:23.65 | 4:44.22 | 303290 | 324611
14 | 72:08.12 | 5:16.51 | 324612 | 348362


Range status and errors

Selected range

Filename I:\=== VINYL RIPS ===\=== EAC===\X FRESH RIP\Schubert, Sawallisch - CD1 - Das geistliche & weltliche Chorwerk.wav

Peak level 99.8 %
Extraction speed 8.4 X
Range quality 100.0 %
Test CRC 744EE9CA
Copy CRC 744EE9CA
Copy OK

No errors occurred


AccurateRip summary

Track 1 not present in database
Track 2 not present in database
Track 3 not present in database
Track 4 not present in database
Track 5 not present in database
Track 6 not present in database
Track 7 not present in database
Track 8 not present in database
Track 9 not present in database
Track 10 not present in database
Track 11 not present in database
Track 12 not present in database
Track 13 not present in database
Track 14 not present in database

None of the tracks are present in the AccurateRip database

End of status report

==== Log checksum 5A8F7AC5B2E3311C1355B81B217210C5F2C19B356729E226460C647E94E3D809 ====

Exact Audio Copy V1.0 beta 2 from 29. April 2011

EAC extraction logfile from 22. May 2012, 12:10

Wolfgang Sawallisch / CD2 - Das geistliche & weltliche Chorwerk

Used drive : PIONEER BD-RW BDR-206 Adapter: 2 ID: 3

Read mode : Secure
Utilize accurate stream : Yes
Defeat audio cache : Yes
Make use of C2 pointers : No

Read offset correction : 667
Overread into Lead-In and Lead-Out : No
Fill up missing offset samples with silence : Yes
Delete leading and trailing silent blocks : No
Null samples used in CRC calculations : Yes
Used interface : Native Win32 interface for Win NT & 2000

Used output format : User Defined Encoder
Selected bitrate : 896 kBit/s
Quality : High
Add ID3 tag : No
Command line compressor : C:\Program Files\FLAC\flac.exe
Additional command line options : -5 -T "Artist=%artist%" -T "Title=%title%" -T "Album=%albumtitle%" -T "Date=%year%" -T "Tracknumber=%tracknr%" -T "Genre=%genre%" %source% -o %dest%


TOC of the extracted CD

Track | Start | Length | Start sector | End sector
––––––––––––––––––––––––––––-
1 | 0:00.00 | 5:19.38 | 0 | 23962
2 | 5:19.38 | 8:28.19 | 23963 | 62081
3 | 13:47.57 | 5:34.70 | 62082 | 87201
4 | 19:22.52 | 1:42.25 | 87202 | 94876
5 | 21:05.02 | 4:44.59 | 94877 | 116235
6 | 25:49.61 | 4:50.16 | 116236 | 138001
7 | 30:40.02 | 3:09.72 | 138002 | 152248
8 | 33:49.74 | 2:59.33 | 152249 | 165706
9 | 36:49.32 | 2:33.43 | 165707 | 177224
10 | 39:23.00 | 1:39.68 | 177225 | 184717
11 | 41:02.68 | 3:33.17 | 184718 | 200709
12 | 44:36.10 | 5:19.62 | 200710 | 224696
13 | 49:55.72 | 2:25.39 | 224697 | 235610
14 | 52:21.36 | 1:43.32 | 235611 | 243367
15 | 54:04.68 | 4:20.63 | 243368 | 262930
16 | 58:25.56 | 2:40.40 | 262931 | 274970
17 | 61:06.21 | 3:33.10 | 274971 | 290955
18 | 64:39.31 | 4:07.01 | 290956 | 309481
19 | 68:46.32 | 3:14.45 | 309482 | 324076
20 | 72:01.02 | 3:56.35 | 324077 | 341811


Range status and errors

Selected range

Filename I:\=== VINYL RIPS ===\=== EAC===\X FRESH RIP\Schubert, Sawallisch - CD2 - Das geistliche & weltliche Chorwerk.wav

Peak level 99.8 %
Extraction speed 8.3 X
Range quality 100.0 %
Test CRC 5CBCD76D
Copy CRC 5CBCD76D
Copy OK

No errors occurred


AccurateRip summary

Track 1 not present in database
Track 2 not present in database
Track 3 not present in database
Track 4 not present in database
Track 5 not present in database
Track 6 not present in database
Track 7 not present in database
Track 8 not present in database
Track 9 not present in database
Track 10 not present in database
Track 11 not present in database
Track 12 not present in database
Track 13 not present in database
Track 14 not present in database
Track 15 not present in database
Track 16 not present in database
Track 17 not present in database
Track 18 not present in database
Track 19 not present in database
Track 20 not present in database

None of the tracks are present in the AccurateRip database

End of status report

==== Log checksum 279E92F47BF8C3C2C002B379BCE4988FD19F6FC550E9F314380D91761B196368 ====

Exact Audio Copy V1.0 beta 2 from 29. April 2011

EAC extraction logfile from 22. May 2012, 15:10

Wolfgang Sawallisch / CD3 - Das geistliche & weltliche Chorwerk

Used drive : PIONEER BD-RW BDR-206 Adapter: 2 ID: 3

Read mode : Secure
Utilize accurate stream : Yes
Defeat audio cache : Yes
Make use of C2 pointers : No

Read offset correction : 667
Overread into Lead-In and Lead-Out : No
Fill up missing offset samples with silence : Yes
Delete leading and trailing silent blocks : No
Null samples used in CRC calculations : Yes
Used interface : Native Win32 interface for Win NT & 2000

Used output format : User Defined Encoder
Selected bitrate : 896 kBit/s
Quality : High
Add ID3 tag : No
Command line compressor : C:\Program Files\FLAC\flac.exe
Additional command line options : -5 -T "Artist=%artist%" -T "Title=%title%" -T "Album=%albumtitle%" -T "Date=%year%" -T "Tracknumber=%tracknr%" -T "Genre=%genre%" %source% -o %dest%


TOC of the extracted CD

Track | Start | Length | Start sector | End sector
––––––––––––––––––––––––––––-
1 | 0:00.00 | 6:54.35 | 0 | 31084
2 | 6:54.35 | 14:08.63 | 31085 | 94747
3 | 21:03.23 | 11:37.10 | 94748 | 147032
4 | 32:40.33 | 3:13.33 | 147033 | 161540
5 | 35:53.66 | 4:26.16 | 161541 | 181506
6 | 40:20.07 | 7:52.18 | 181507 | 216924
7 | 48:12.25 | 2:56.33 | 216925 | 230157
8 | 51:08.58 | 4:05.27 | 230158 | 248559
9 | 55:14.10 | 5:38.31 | 248560 | 273940
10 | 60:52.41 | 1:34.58 | 273941 | 281048
11 | 62:27.24 | 2:59.08 | 281049 | 294481
12 | 65:26.32 | 4:10.01 | 294482 | 313232
13 | 69:36.33 | 4:11.04 | 313233 | 332061


Range status and errors

Selected range

Filename I:\=== VINYL RIPS ===\=== EAC===\X FRESH RIP\Schubert, Sawallisch - CD3 - Das geistliche & weltliche Chorwerk.wav

Peak level 99.8 %
Extraction speed 1.9 X
Range quality 100.0 %
Test CRC D4C31435
Copy CRC D4C31435
Copy OK

No errors occurred


AccurateRip summary

Track 1 not present in database
Track 2 not present in database
Track 3 not present in database
Track 4 not present in database
Track 5 not present in database
Track 6 not present in database
Track 7 accurately ripped (confidence 1) [E65F9521] (AR v2)
Track 8 accurately ripped (confidence 1) [354A7ED0] (AR v2)
Track 9 accurately ripped (confidence 1) [B3CE276D] (AR v2)
Track 10 accurately ripped (confidence 1) [A97429E5] (AR v2)
Track 11 accurately ripped (confidence 1) [F25E2C37] (AR v2)
Track 12 accurately ripped (confidence 1) [83F17E55] (AR v2)
Track 13 accurately ripped (confidence 1) [5EDBF5D6] (AR v2)

7 track(s) accurately ripped
6 track(s) not present in the AccurateRip database

Some tracks could not be verified as accurate

End of status report

==== Log checksum 7339D50F86FCD681CBC4B2ACE99437FD7DA425A0D81B96D195741E39DE0FB245 ====

Exact Audio Copy V1.0 beta 2 from 29. April 2011

EAC extraction logfile from 22. May 2012, 15:31

Wolfgang Sawallisch / CD4 - Das geistliche & weltliche Chorwerk

Used drive : PIONEER BD-RW BDR-206 Adapter: 2 ID: 3

Read mode : Secure
Utilize accurate stream : Yes
Defeat audio cache : Yes
Make use of C2 pointers : No

Read offset correction : 667
Overread into Lead-In and Lead-Out : No
Fill up missing offset samples with silence : Yes
Delete leading and trailing silent blocks : No
Null samples used in CRC calculations : Yes
Used interface : Native Win32 interface for Win NT & 2000

Used output format : User Defined Encoder
Selected bitrate : 896 kBit/s
Quality : High
Add ID3 tag : No
Command line compressor : C:\Program Files\FLAC\flac.exe
Additional command line options : -5 -T "Artist=%artist%" -T "Title=%title%" -T "Album=%albumtitle%" -T "Date=%year%" -T "Tracknumber=%tracknr%" -T "Genre=%genre%" %source% -o %dest%


TOC of the extracted CD

Track | Start | Length | Start sector | End sector
––––––––––––––––––––––––––––-
1 | 0:00.00 | 7:14.37 | 0 | 32586
2 | 7:14.37 | 13:50.06 | 32587 | 94842
3 | 21:04.43 | 15:37.15 | 94843 | 165132
4 | 36:41.58 | 3:42.18 | 165133 | 181800
5 | 40:24.01 | 5:49.31 | 181801 | 208006
6 | 46:13.32 | 10:43.52 | 208007 | 256283
7 | 56:57.09 | 3:54.71 | 256284 | 273904
8 | 60:52.05 | 9:42.57 | 273905 | 317611


Range status and errors

Selected range

Filename I:\=== VINYL RIPS ===\=== EAC===\X FRESH RIP\Schubert, Sawallisch - CD4 - Das geistliche & weltliche Chorwerk.wav

Peak level 99.8 %
Extraction speed 7.8 X
Range quality 100.0 %
Test CRC EEFCA651
Copy CRC EEFCA651
Copy OK

No errors occurred


AccurateRip summary

Track 1 not present in database
Track 2 not present in database
Track 3 not present in database
Track 4 not present in database
Track 5 not present in database
Track 6 not present in database
Track 7 accurately ripped (confidence 1) [066CE00B] (AR v2)
Track 8 accurately ripped (confidence 1) [B7BF0A7F] (AR v2)

2 track(s) accurately ripped
6 track(s) not present in the AccurateRip database

Some tracks could not be verified as accurate

End of status report

==== Log checksum B27FB1F5CE2D6F0CC80A2E38D17C66D39D60C1A505588649979002F4DD3C6EFB ====

Exact Audio Copy V1.0 beta 2 from 29. April 2011

EAC extraction logfile from 22. May 2012, 15:54

Wolfgang Sawallisch / CD5 - Das geistliche & weltliche Chorwerk

Used drive : PIONEER BD-RW BDR-206 Adapter: 2 ID: 3

Read mode : Secure
Utilize accurate stream : Yes
Defeat audio cache : Yes
Make use of C2 pointers : No

Read offset correction : 667
Overread into Lead-In and Lead-Out : No
Fill up missing offset samples with silence : Yes
Delete leading and trailing silent blocks : No
Null samples used in CRC calculations : Yes
Used interface : Native Win32 interface for Win NT & 2000

Used output format : User Defined Encoder
Selected bitrate : 896 kBit/s
Quality : High
Add ID3 tag : No
Command line compressor : C:\Program Files\FLAC\flac.exe
Additional command line options : -5 -T "Artist=%artist%" -T "Title=%title%" -T "Album=%albumtitle%" -T "Date=%year%" -T "Tracknumber=%tracknr%" -T "Genre=%genre%" %source% -o %dest%


TOC of the extracted CD

Track | Start | Length | Start sector | End sector
––––––––––––––––––––––––––––-
1 | 0:00.00 | 4:04.13 | 0 | 18312
2 | 4:04.13 | 5:55.68 | 18313 | 45005
3 | 10:00.06 | 5:38.00 | 45006 | 70355
4 | 15:38.06 | 5:39.27 | 70356 | 95807
5 | 21:17.33 | 6:54.09 | 95808 | 126866
6 | 28:11.42 | 3:43.70 | 126867 | 143661
7 | 31:55.37 | 4:55.00 | 143662 | 165786
8 | 36:50.37 | 6:20.34 | 165787 | 194320
9 | 43:10.71 | 4:42.73 | 194321 | 215543
10 | 47:53.69 | 1:57.02 | 215544 | 224320
11 | 49:50.71 | 9:01.00 | 224321 | 264895
12 | 58:51.71 | 7:55.20 | 264896 | 300540


Range status and errors

Selected range

Filename I:\=== VINYL RIPS ===\=== EAC===\X FRESH RIP\Schubert, Sawallisch - CD5 - Das geistliche & weltliche Chorwerk.wav

Peak level 99.8 %
Extraction speed 7.6 X
Range quality 100.0 %
Test CRC 98D410B4
Copy CRC 98D410B4
Copy OK

No errors occurred


AccurateRip summary

Track 1 not present in database
Track 2 not present in database
Track 3 not present in database
Track 4 not present in database
Track 5 not present in database
Track 6 not present in database
Track 7 not present in database
Track 8 not present in database
Track 9 not present in database
Track 10 not present in database
Track 11 not present in database
Track 12 not present in database

None of the tracks are present in the AccurateRip database

End of status report

==== Log checksum F0784E4BC9D59A9C28E10F2EE4BCAAD046992EB8E4882989B53156AF300E6472 ====

Exact Audio Copy V1.0 beta 2 from 29. April 2011

EAC extraction logfile from 22. May 2012, 16:16

Wolfgang Sawallisch / CD6 - Das geistliche & weltliche Chorwerk

Used drive : PIONEER BD-RW BDR-206 Adapter: 2 ID: 3

Read mode : Secure
Utilize accurate stream : Yes
Defeat audio cache : Yes
Make use of C2 pointers : No

Read offset correction : 667
Overread into Lead-In and Lead-Out : No
Fill up missing offset samples with silence : Yes
Delete leading and trailing silent blocks : No
Null samples used in CRC calculations : Yes
Used interface : Native Win32 interface for Win NT & 2000

Used output format : User Defined Encoder
Selected bitrate : 896 kBit/s
Quality : High
Add ID3 tag : No
Command line compressor : C:\Program Files\FLAC\flac.exe
Additional command line options : -5 -T "Artist=%artist%" -T "Title=%title%" -T "Album=%albumtitle%" -T "Date=%year%" -T "Tracknumber=%tracknr%" -T "Genre=%genre%" %source% -o %dest%


TOC of the extracted CD

Track | Start | Length | Start sector | End sector
––––––––––––––––––––––––––––-
1 | 0:00.00 | 9:17.73 | 0 | 41847
2 | 9:17.73 | 0:47.09 | 41848 | 45381
3 | 10:05.07 | 1:30.11 | 45382 | 52142
4 | 11:35.18 | 1:22.59 | 52143 | 58351
5 | 12:58.02 | 1:05.71 | 58352 | 63297
6 | 14:03.73 | 0:48.05 | 63298 | 66902
7 | 14:52.03 | 1:07.24 | 66903 | 71951
8 | 15:59.27 | 4:40.45 | 71952 | 92996
9 | 20:39.72 | 4:44.41 | 92997 | 114337
10 | 25:24.38 | 4:07.17 | 114338 | 132879
11 | 29:31.55 | 6:01.55 | 132880 | 160009
12 | 35:33.35 | 3:56.65 | 160010 | 177774
13 | 39:30.25 | 1:47.40 | 177775 | 185839
14 | 41:17.65 | 4:18.18 | 185840 | 205207
15 | 45:36.08 | 1:57.39 | 205208 | 214021
16 | 47:33.47 | 2:30.62 | 214022 | 225333
17 | 50:04.34 | 2:32.05 | 225334 | 236738
18 | 52:36.39 | 2:23.07 | 236739 | 247470
19 | 54:59.46 | 1:47.13 | 247471 | 255508
20 | 56:46.59 | 3:18.18 | 255509 | 270376
21 | 60:05.02 | 5:22.33 | 270377 | 294559
22 | 65:27.35 | 7:21.51 | 294560 | 327685


Range status and errors

Selected range

Filename I:\=== VINYL RIPS ===\=== EAC===\X FRESH RIP\Schubert, Sawallisch - CD6 - Das geistliche & weltliche Chorwerk.wav

Peak level 99.8 %
Extraction speed 7.9 X
Range quality 99.9 %
Test CRC D9DFA0CA
Copy CRC D9DFA0CA
Copy OK

No errors occurred


AccurateRip summary

Track 1 accurately ripped (confidence 1) [969FE93D] (AR v2)
Track 2 accurately ripped (confidence 1) [9D5A43D1] (AR v2)
Track 3 accurately ripped (confidence 1) [189EEBB5] (AR v2)
Track 4 accurately ripped (confidence 1) [7417031D] (AR v2)
Track 5 accurately ripped (confidence 1) [79C8E66B] (AR v2)
Track 6 accurately ripped (confidence 1) [916DD940] (AR v2)
Track 7 accurately ripped (confidence 1) [CFF9CF50] (AR v2)
Track 8 accurately ripped (confidence 1) [C9519B76] (AR v2)
Track 9 accurately ripped (confidence 1) [205CAE54] (AR v2)
Track 10 accurately ripped (confidence 1) [3D7D8831] (AR v2)
Track 11 accurately ripped (confidence 1) [D80D5E1C] (AR v2)
Track 12 accurately ripped (confidence 1) [24D424F9] (AR v2)
Track 13 accurately ripped (confidence 1) [DACA1383] (AR v2)
Track 14 accurately ripped (confidence 1) [66432E29] (AR v2)
Track 15 accurately ripped (confidence 1) [61C21D44] (AR v2)
Track 16 accurately ripped (confidence 1) [B94F50D2] (AR v2)
Track 17 accurately ripped (confidence 1) [24EC6EB3] (AR v2)
Track 18 accurately ripped (confidence 1) [720FFA13] (AR v2)
Track 19 accurately ripped (confidence 1) [67AA41FA] (AR v2)
Track 20 accurately ripped (confidence 1) [138CCD0C] (AR v2)
Track 21 accurately ripped (confidence 1) [FE28EE3A] (AR v2)
Track 22 accurately ripped (confidence 1) [769CFB14] (AR v2)

All tracks accurately ripped

End of status report

==== Log checksum A0C6B1D3803F2E8E23F61A207502E35A712AF4D3E74776457A2B19A31C789980 ====

Exact Audio Copy V1.0 beta 2 from 29. April 2011

EAC extraction logfile from 22. May 2012, 16:37

Wolfgang Sawallisch / CD7 - Das geistliche & weltliche Chorwerk

Used drive : PIONEER BD-RW BDR-206 Adapter: 2 ID: 3

Read mode : Secure
Utilize accurate stream : Yes
Defeat audio cache : Yes
Make use of C2 pointers : No

Read offset correction : 667
Overread into Lead-In and Lead-Out : No
Fill up missing offset samples with silence : Yes
Delete leading and trailing silent blocks : No
Null samples used in CRC calculations : Yes
Used interface : Native Win32 interface for Win NT & 2000

Used output format : User Defined Encoder
Selected bitrate : 896 kBit/s
Quality : High
Add ID3 tag : No
Command line compressor : C:\Program Files\FLAC\flac.exe
Additional command line options : -5 -T "Artist=%artist%" -T "Title=%title%" -T "Album=%albumtitle%" -T "Date=%year%" -T "Tracknumber=%tracknr%" -T "Genre=%genre%" %source% -o %dest%


TOC of the extracted CD

Track | Start | Length | Start sector | End sector
––––––––––––––––––––––––––––-
1 | 0:00.00 | 1:04.41 | 0 | 4840
2 | 1:04.41 | 2:05.61 | 4841 | 14276
3 | 3:10.27 | 1:18.19 | 14277 | 20145
4 | 4:28.46 | 2:42.30 | 20146 | 32325
5 | 7:11.01 | 4:05.26 | 32326 | 50726
6 | 11:16.27 | 3:44.72 | 50727 | 67598
7 | 15:01.24 | 0:47.55 | 67599 | 71178
8 | 15:49.04 | 1:22.45 | 71179 | 77373
9 | 17:11.49 | 3:15.63 | 77374 | 92061
10 | 20:27.37 | 1:11.74 | 92062 | 97460
11 | 21:39.36 | 2:00.37 | 97461 | 106497
12 | 23:39.73 | 1:17.12 | 106498 | 112284
13 | 24:57.10 | 2:10.39 | 112285 | 122073
14 | 27:07.49 | 2:14.60 | 122074 | 132183
15 | 29:22.34 | 2:59.38 | 132184 | 145646
16 | 32:21.72 | 0:46.10 | 145647 | 149106
17 | 33:08.07 | 3:11.08 | 149107 | 163439
18 | 36:19.15 | 4:54.32 | 163440 | 185521
19 | 41:13.47 | 2:40.40 | 185522 | 197561
20 | 43:54.12 | 2:42.73 | 197562 | 209784
21 | 46:37.10 | 4:57.66 | 209785 | 232125
22 | 51:35.01 | 4:08.51 | 232126 | 250776
23 | 55:43.52 | 2:30.22 | 250777 | 262048
24 | 58:13.74 | 5:58.32 | 262049 | 288930
25 | 64:12.31 | 1:41.35 | 288931 | 296540
26 | 65:53.66 | 1:44.71 | 296541 | 304411
27 | 67:38.62 | 6:17.27 | 304412 | 332713
28 | 73:56.14 | 1:25.51 | 332714 | 339139
29 | 75:21.65 | 2:38.62 | 339140 | 351051


Range status and errors

Selected range

Filename I:\=== VINYL RIPS ===\=== EAC===\X FRESH RIP\Schubert, Sawallisch - CD7 - Das geistliche & weltliche Chorwerk.wav

Peak level 99.8 %
Extraction speed 8.4 X
Range quality 100.0 %
Test CRC 5DA872EE
Copy CRC 5DA872EE
Copy OK

No errors occurred


AccurateRip summary

Track 1 not present in database
Track 2 not present in database
Track 3 not present in database
Track 4 not present in database
Track 5 not present in database
Track 6 not present in database
Track 7 not present in database
Track 8 not present in database
Track 9 not present in database
Track 10 not present in database
Track 11 not present in database
Track 12 not present in database
Track 13 not present in database
Track 14 not present in database
Track 15 not present in database
Track 16 not present in database
Track 17 not present in database
Track 18 not present in database
Track 19 not present in database
Track 20 not present in database
Track 21 not present in database
Track 22 not present in database
Track 23 not present in database
Track 24 not present in database
Track 25 not present in database
Track 26 not present in database
Track 27 not present in database
Track 28 not present in database
Track 29 not present in database

None of the tracks are present in the AccurateRip database

End of status report

==== Log checksum 4EA9E938B77C629D89F2651ED03CF1206AEFD2FA19E0E28AB94BB699D4A8063D ====

Exact Audio Copy V1.0 beta 2 from 29. April 2011

EAC extraction logfile from 22. May 2012, 17:50

Wolfgang Sawallisch / CD8 - Das geistliche & weltliche Chorwerk

Used drive : PIONEER BD-RW BDR-206 Adapter: 2 ID: 3

Read mode : Secure
Utilize accurate stream : Yes
Defeat audio cache : Yes
Make use of C2 pointers : No

Read offset correction : 667
Overread into Lead-In and Lead-Out : No
Fill up missing offset samples with silence : Yes
Delete leading and trailing silent blocks : No
Null samples used in CRC calculations : Yes
Used interface : Native Win32 interface for Win NT & 2000

Used output format : User Defined Encoder
Selected bitrate : 896 kBit/s
Quality : High
Add ID3 tag : No
Command line compressor : C:\Program Files\FLAC\flac.exe
Additional command line options : -5 -T "Artist=%artist%" -T "Title=%title%" -T "Album=%albumtitle%" -T "Date=%year%" -T "Tracknumber=%tracknr%" -T "Genre=%genre%" %source% -o %dest%


TOC of the extracted CD

Track | Start | Length | Start sector | End sector
––––––––––––––––––––––––––––-
1 | 0:00.00 | 3:24.05 | 0 | 15304
2 | 3:24.05 | 2:02.49 | 15305 | 24503
3 | 5:26.54 | 6:24.17 | 24504 | 53320
4 | 11:50.71 | 2:49.02 | 53321 | 65997
5 | 14:39.73 | 2:13.43 | 65998 | 76015
6 | 16:53.41 | 0:52.69 | 76016 | 79984
7 | 17:46.35 | 0:39.00 | 79985 | 82909
8 | 18:25.35 | 1:36.07 | 82910 | 90116
9 | 20:01.42 | 0:49.08 | 90117 | 93799
10 | 20:50.50 | 5:10.66 | 93800 | 117115
11 | 26:01.41 | 1:30.73 | 117116 | 123938
12 | 27:32.39 | 6:40.42 | 123939 | 153980
13 | 34:13.06 | 4:02.65 | 153981 | 172195
14 | 38:15.71 | 1:19.11 | 172196 | 178131
15 | 39:35.07 | 4:22.09 | 178132 | 197790
16 | 43:57.16 | 1:57.13 | 197791 | 206578
17 | 45:54.29 | 1:29.36 | 206579 | 213289
18 | 47:23.65 | 2:23.00 | 213290 | 224014
19 | 49:46.65 | 4:35.01 | 224015 | 244640
20 | 54:21.66 | 3:53.49 | 244641 | 262164
21 | 58:15.40 | 1:11.11 | 262165 | 267500
22 | 59:26.51 | 4:49.23 | 267501 | 289198


Range status and errors

Selected range

Filename I:\=== VINYL RIPS ===\=== EAC===\X FRESH RIP\Schubert, Sawallisch - CD8 - Das geistliche & weltliche Chorwerk.wav

Peak level 99.8 %
Extraction speed 1.8 X
Range quality 100.0 %
Test CRC 4E3EC356
Copy CRC 4E3EC356
Copy OK

No errors occurred


AccurateRip summary

Track 1 accurately ripped (confidence 1) [F87FA960] (AR v2)
Track 2 accurately ripped (confidence 1) [F7DB2E0D] (AR v2)
Track 3 accurately ripped (confidence 1) [543B3EBC] (AR v2)
Track 4 accurately ripped (confidence 1) [1333BAE8] (AR v2)
Track 5 accurately ripped (confidence 1) [C07EA244] (AR v2)
Track 6 accurately ripped (confidence 1) [D66F9734] (AR v2)
Track 7 accurately ripped (confidence 1) [F106AFB2] (AR v2)
Track 8 accurately ripped (confidence 1) [1B37415F] (AR v2)
Track 9 accurately ripped (confidence 1) [8AC68A55] (AR v2)
Track 10 accurately ripped (confidence 1) [3878AFB9] (AR v2)
Track 11 accurately ripped (confidence 1) [10C90127] (AR v2)
Track 12 accurately ripped (confidence 1) [840B8A28] (AR v2)
Track 13 accurately ripped (confidence 1) [F95B8120] (AR v2)
Track 14 accurately ripped (confidence 1) [E18A9026] (AR v2)
Track 15 accurately ripped (confidence 1) [6E200AB4] (AR v2)
Track 16 accurately ripped (confidence 1) [7A4F301E] (AR v2)
Track 17 accurately ripped (confidence 1) [FA011BDD] (AR v2)
Track 18 accurately ripped (confidence 1) [EB683918] (AR v2)
Track 19 accurately ripped (confidence 1) [B64A592F] (AR v2)
Track 20 accurately ripped (confidence 1) [8698798D] (AR v2)
Track 21 accurately ripped (confidence 1) [2CEFA611] (AR v2)
Track 22 accurately ripped (confidence 1) [44F89D00] (AR v2)

All tracks accurately ripped

End of status report

==== Log checksum 80A1C3E2C399B18A5494DC058E920D35D35BCFD65794C128DF0386DBDD00F252 ====

Exact Audio Copy V1.0 beta 2 from 29. April 2011

EAC extraction logfile from 22. May 2012, 18:11

Wolfgang Sawallisch / CD9 - Das geistliche & weltliche Chorwerk

Used drive : PIONEER BD-RW BDR-206 Adapter: 2 ID: 3

Read mode : Secure
Utilize accurate stream : Yes
Defeat audio cache : Yes
Make use of C2 pointers : No

Read offset correction : 667
Overread into Lead-In and Lead-Out : No
Fill up missing offset samples with silence : Yes
Delete leading and trailing silent blocks : No
Null samples used in CRC calculations : Yes
Used interface : Native Win32 interface for Win NT & 2000

Used output format : User Defined Encoder
Selected bitrate : 896 kBit/s
Quality : High
Add ID3 tag : No
Command line compressor : C:\Program Files\FLAC\flac.exe
Additional command line options : -5 -T "Artist=%artist%" -T "Title=%title%" -T "Album=%albumtitle%" -T "Date=%year%" -T "Tracknumber=%tracknr%" -T "Genre=%genre%" %source% -o %dest%


TOC of the extracted CD

Track | Start | Length | Start sector | End sector
––––––––––––––––––––––––––––-
1 | 0:00.00 | 6:33.22 | 0 | 29496
2 | 6:33.22 | 3:11.60 | 29497 | 43881
3 | 9:45.07 | 3:12.72 | 43882 | 58353
4 | 12:58.04 | 4:42.29 | 58354 | 79532
5 | 17:40.33 | 4:32.67 | 79533 | 99999
6 | 22:13.25 | 1:40.51 | 100000 | 107550
7 | 23:54.01 | 2:59.54 | 107551 | 121029
8 | 26:53.55 | 2:07.08 | 121030 | 130562
9 | 29:00.63 | 1:45.39 | 130563 | 138476
10 | 30:46.27 | 3:23.61 | 138477 | 153762
11 | 34:10.13 | 5:08.62 | 153763 | 176924
12 | 39:19.00 | 1:33.24 | 176925 | 183923
13 | 40:52.24 | 2:50.09 | 183924 | 196682
14 | 43:42.33 | 1:00.72 | 196683 | 201254
15 | 44:43.30 | 3:15.00 | 201255 | 215879
16 | 47:58.30 | 1:40.55 | 215880 | 223434
17 | 49:39.10 | 1:31.23 | 223435 | 230282
18 | 51:10.33 | 11:05.20 | 230283 | 280177
19 | 62:15.53 | 3:56.34 | 280178 | 297911
20 | 66:12.12 | 6:26.30 | 297912 | 326891
21 | 72:38.42 | 5:10.36 | 326892 | 350177


Range status and errors

Selected range

Filename I:\=== VINYL RIPS ===\=== EAC===\X FRESH RIP\Schubert, Sawallisch - CD9 - Das geistliche & weltliche Chorwerk.wav

Peak level 99.8 %
Extraction speed 8.4 X
Range quality 100.0 %
Test CRC 15B44298
Copy CRC 15B44298
Copy OK

No errors occurred


AccurateRip summary

Track 1 accurately ripped (confidence 1) [E9437C29] (AR v2)
Track 2 accurately ripped (confidence 1) [F2992652] (AR v2)
Track 3 accurately ripped (confidence 1) [A4773BF4] (AR v2)
Track 4 accurately ripped (confidence 1) [FB81CEE7] (AR v2)
Track 5 accurately ripped (confidence 1) [50F92D54] (AR v2)
Track 6 not present in database
Track 7 accurately ripped (confidence 1) [6362CE53] (AR v2)
Track 8 accurately ripped (confidence 1) [84063EB2] (AR v2)
Track 9 accurately ripped (confidence 1) [E0516AC4] (AR v2)
Track 10 accurately ripped (confidence 1) [A67F7ABD] (AR v2)
Track 11 accurately ripped (confidence 1) [44F2C0F8] (AR v2)
Track 12 accurately ripped (confidence 1) [220BBF6F] (AR v2)
Track 13 accurately ripped (confidence 1) [33EA9136] (AR v2)
Track 14 accurately ripped (confidence 1) [D80FA9D5] (AR v2)
Track 15 accurately ripped (confidence 1) [28F4A1C2] (AR v2)
Track 16 accurately ripped (confidence 1) [ABC4814C] (AR v2)
Track 17 not present in database
Track 18 accurately ripped (confidence 1) [863C1062] (AR v2)
Track 19 accurately ripped (confidence 1) [DC127D60] (AR v2)
Track 20 accurately ripped (confidence 1) [90C804BD] (AR v2)
Track 21 accurately ripped (confidence 1) [BB720AD3] (AR v2)

19 track(s) accurately ripped
2 track(s) not present in the AccurateRip database

Some tracks could not be verified as accurate

End of status report

==== Log checksum 1A2372FDB944E925C3D0A05CD59DD03EB54E7360A8E396C4494A7B265ACAF106 ====

Exact Audio Copy V1.0 beta 2 from 29. April 2011

EAC extraction logfile from 22. May 2012, 18:39

Wolfgang Sawallisch / CD10 - Das geistliche & weltliche Chorwerk

Used drive : PIONEER BD-RW BDR-206 Adapter: 2 ID: 3

Read mode : Secure
Utilize accurate stream : Yes
Defeat audio cache : Yes
Make use of C2 pointers : No

Read offset correction : 667
Overread into Lead-In and Lead-Out : No
Fill up missing offset samples with silence : Yes
Delete leading and trailing silent blocks : No
Null samples used in CRC calculations : Yes
Used interface : Native Win32 interface for Win NT & 2000

Used output format : User Defined Encoder
Selected bitrate : 896 kBit/s
Quality : High
Add ID3 tag : No
Command line compressor : C:\Program Files\FLAC\flac.exe
Additional command line options : -5 -T "Artist=%artist%" -T "Title=%title%" -T "Album=%albumtitle%" -T "Date=%year%" -T "Tracknumber=%tracknr%" -T "Genre=%genre%" %source% -o %dest%


TOC of the extracted CD

Track | Start | Length | Start sector | End sector
––––––––––––––––––––––––––––-
1 | 0:00.00 | 1:33.36 | 0 | 7010
2 | 1:33.36 | 1:44.10 | 7011 | 14820
3 | 3:17.46 | 1:26.32 | 14821 | 21302
4 | 4:44.03 | 4:08.74 | 21303 | 39976
5 | 8:53.02 | 4:17.67 | 39977 | 59318
6 | 13:10.69 | 2:04.43 | 59319 | 68661
7 | 15:15.37 | 5:23.10 | 68662 | 92896
8 | 20:38.47 | 4:06.62 | 92897 | 111408
9 | 24:45.34 | 1:20.71 | 111409 | 117479
10 | 26:06.30 | 2:11.21 | 117480 | 127325
11 | 28:17.51 | 1:44.61 | 127326 | 135186
12 | 30:02.37 | 2:09.44 | 135187 | 144905
13 | 32:12.06 | 1:38.50 | 144906 | 152305
14 | 33:50.56 | 3:11.09 | 152306 | 166639
15 | 37:01.65 | 1:33.42 | 166640 | 173656
16 | 38:35.32 | 1:50.50 | 173657 | 181956
17 | 40:26.07 | 1:51.35 | 181957 | 190316
18 | 42:17.42 | 2:28.44 | 190317 | 201460
19 | 44:46.11 | 2:04.11 | 201461 | 210771
20 | 46:50.22 | 2:51.70 | 210772 | 223666
21 | 49:42.17 | 1:26.58 | 223667 | 230174
22 | 51:09.00 | 1:24.03 | 230175 | 236477
23 | 52:33.03 | 1:27.47 | 236478 | 243049
24 | 54:00.50 | 0:53.28 | 243050 | 247052
25 | 54:54.03 | 2:14.00 | 247053 | 257102
26 | 57:08.03 | 1:35.45 | 257103 | 264272
27 | 58:43.48 | 1:43.00 | 264273 | 271997
28 | 60:26.48 | 4:47.72 | 271998 | 293594


Range status and errors

Selected range

Filename I:\=== VINYL RIPS ===\=== EAC===\X FRESH RIP\Schubert, Sawallisch - CD10 - Das geistliche & weltliche Chorwerk.wav

Peak level 99.8 %
Extraction speed 7.5 X
Range quality 99.9 %
Test CRC 41A787F2
Copy CRC 41A787F2
Copy OK

No errors occurred


AccurateRip summary

Track 1 accurately ripped (confidence 1) [644543FA] (AR v2)
Track 2 accurately ripped (confidence 1) [3621ACE0] (AR v2)
Track 3 accurately ripped (confidence 1) [6938EEBE] (AR v2)
Track 4 not present in database
Track 5 accurately ripped (confidence 1) [9424FFE8] (AR v2)
Track 6 accurately ripped (confidence 1) [821C1B6B] (AR v2)
Track 7 accurately ripped (confidence 1) [5F4F456B] (AR v2)
Track 8 accurately ripped (confidence 1) [E54C99E6] (AR v2)
Track 9 accurately ripped (confidence 1) [4EBE54F7] (AR v2)
Track 10 accurately ripped (confidence 1) [1F71A80B] (AR v2)
Track 11 accurately ripped (confidence 1) [6099CABC] (AR v2)
Track 12 accurately ripped (confidence 1) [BCFF7F37] (AR v2)
Track 13 accurately ripped (confidence 1) [9C97285F] (AR v2)
Track 14 accurately ripped (confidence 1) [56C84BE0] (AR v2)
Track 15 accurately ripped (confidence 1) [7F4ACC9F] (AR v2)
Track 16 accurately ripped (confidence 1) [3CBBBE87] (AR v2)
Track 17 accurately ripped (confidence 1) [F799EF45] (AR v2)
Track 18 accurately ripped (confidence 1) [DE0EDC61] (AR v2)
Track 19 accurately ripped (confidence 1) [428BE3BB] (AR v2)
Track 20 accurately ripped (confidence 1) [AC40257E] (AR v2)
Track 21 accurately ripped (confidence 1) [5B6286CA] (AR v2)
Track 22 accurately ripped (confidence 1) [78E6A37A] (AR v2)
Track 23 accurately ripped (confidence 1) [409E2DB6] (AR v2)
Track 24 accurately ripped (confidence 1) [1A58A86D] (AR v2)
Track 25 accurately ripped (confidence 1) [2667769F] (AR v2)
Track 26 accurately ripped (confidence 1) [EBB10909] (AR v2)
Track 27 accurately ripped (confidence 1) [F34874F6] (AR v2)
Track 28 accurately ripped (confidence 1) [0FBB2B0F] (AR v2)

27 track(s) accurately ripped
1 track(s) not present in the AccurateRip database

Some tracks could not be verified as accurate

End of status report

==== Log checksum 1C835B8625F004FE2FDE71FAA459A311F74C6490952B1EC231B65655849B91E0 ====

Exact Audio Copy V1.0 beta 2 from 29. April 2011

EAC extraction logfile from 22. May 2012, 18:57

Wolfgang Sawallisch / CD11 - Das geistliche & weltliche Chorwerk

Used drive : PIONEER BD-RW BDR-206 Adapter: 2 ID: 3

Read mode : Secure
Utilize accurate stream : Yes
Defeat audio cache : Yes
Make use of C2 pointers : No

Read offset correction : 667
Overread into Lead-In and Lead-Out : No
Fill up missing offset samples with silence : Yes
Delete leading and trailing silent blocks : No
Null samples used in CRC calculations : Yes
Used interface : Native Win32 interface for Win NT & 2000

Used output format : User Defined Encoder
Selected bitrate : 896 kBit/s
Quality : High
Add ID3 tag : No
Command line compressor : C:\Program Files\FLAC\flac.exe
Additional command line options : -5 -T "Artist=%artist%" -T "Title=%title%" -T "Album=%albumtitle%" -T "Date=%year%" -T "Tracknumber=%tracknr%" -T "Genre=%genre%" %source% -o %dest%


TOC of the extracted CD

Track | Start | Length | Start sector | End sector
––––––––––––––––––––––––––––-
1 | 0:00.00 | 1:16.00 | 0 | 5699
2 | 1:16.00 | 2:15.35 | 5700 | 15859
3 | 3:31.35 | 1:57.03 | 15860 | 24637
4 | 5:28.38 | 1:43.42 | 24638 | 32404
5 | 7:12.05 | 3:13.67 | 32405 | 46946
6 | 10:25.72 | 3:51.34 | 46947 | 64305
7 | 14:17.31 | 5:53.02 | 64306 | 90782
8 | 20:10.33 | 4:18.32 | 90783 | 110164
9 | 24:28.65 | 2:46.71 | 110165 | 122685
10 | 27:15.61 | 5:01.47 | 122686 | 145307
11 | 32:17.33 | 3:33.36 | 145308 | 161318
12 | 35:50.69 | 17:08.69 | 161319 | 238487
13 | 52:59.63 | 2:06.33 | 238488 | 247970
14 | 55:06.21 | 5:02.35 | 247971 | 270655


Range status and errors

Selected range

Filename I:\=== VINYL RIPS ===\=== EAC===\X FRESH RIP\Schubert, Sawallisch - CD11 - Das geistliche & weltliche Chorwerk.wav

Peak level 99.8 %
Extraction speed 7.4 X
Range quality 100.0 %
Test CRC 6F80C5B1
Copy CRC 6F80C5B1
Copy OK

No errors occurred


AccurateRip summary

Track 1 accurately ripped (confidence 1) [C5516DEA] (AR v2)
Track 2 accurately ripped (confidence 1) [38A7CFCC] (AR v2)
Track 3 accurately ripped (confidence 1) [37E21339] (AR v2)
Track 4 accurately ripped (confidence 1) [A280D52E] (AR v2)
Track 5 accurately ripped (confidence 1) [2B760DBF] (AR v2)
Track 6 accurately ripped (confidence 1) [F2F131A7] (AR v2)
Track 7 accurately ripped (confidence 1) [F8010560] (AR v2)
Track 8 accurately ripped (confidence 1) [B9329777] (AR v2)
Track 9 accurately ripped (confidence 1) [8D206448] (AR v2)
Track 10 accurately ripped (confidence 1) [2CB5697E] (AR v2)
Track 11 accurately ripped (confidence 1) [4AA2D9C8] (AR v2)
Track 12 accurately ripped (confidence 1) [266C78CA] (AR v2)
Track 13 accurately ripped (confidence 1) [A9D36140] (AR v2)
Track 14 accurately ripped (confidence 1) [7F58B795] (AR v2)

All tracks accurately ripped

End of status report

==== Log checksum DB30256AE9C6B15E00C8CB049F86D3DA81118C55C9EE4199C895D404AEFCB7B2 ====


foobar2000 1.1.7 / Dynamic Range Meter 1.1.1
log date: 2012-05-23 11:05:16

––––––––––––––––––––––––––––––––––––––––
Analyzed: Wolfgang Sawallisch / CD1 - Das geistliche & weltliche Chorwerk
––––––––––––––––––––––––––––––––––––––––

DR Peak RMS Duration Track
––––––––––––––––––––––––––––––––––––––––
DR14 -3.12 dB -24.99 dB 2:35 01-Kyrie B-dur D45
DR12 -1.88 dB -18.92 dB 5:34 02-Kyrie d-moll D49
DR15 -2.37 dB -25.70 dB 7:44 03-Messe F-dur D105 - 1. Kyri
DR14 -0.04 dB -20.00 dB 12:19 04-Messe F-dur D105 - 2. Gloria
DR14 -0.01 dB -21.53 dB 8:33 05-Messe F-dur D105 - 3. Credo
DR11 -0.46 dB -17.15 dB 2:17 06-Messe F-dur D105 - 4. Sanctus
DR13 -5.11 dB -24.70 dB 4:24 07-Messe F-dur D105 - 5. Benedictus
DR14 -1.15 dB -22.55 dB 12:29 08-Messe F-dur D105 - 6. Agnu
DR13 -5.64 dB -25.75 dB 3:45 09-Messe G-dur D167 - 1. Kyrie
DR13 -1.08 dB -19.04 dB 2:43 10-Messe G-dur D167 - 2. Gloria
DR13 -1.48 dB -22.86 dB 3:45 11-Messe G-dur D167 - 3. Credo
DR12 -0.09 dB -17.78 dB 1:16 12-Messe G-dur D167 - 4. Sanctus
DR15 -1.83 dB -24.54 dB 4:44 13-Messe G-dur D167 - 5. Benedictus
DR15 -6.98 dB -28.58 dB 5:17 14-Messe G-dur D167 - 6. Agnus Dei
––––––––––––––––––––––––––––––––––––––––

Number of tracks: 14
Official DR value: DR14

Samplerate: 44100 Hz
Channels: 2
Bits per sample: 16
Bitrate: 551 kbps
Codec: FLAC
================================================================================

––––––––––––––––––––––––––––––––––––––––
Analyzed: Wolfgang Sawallisch / CD2 - Das geistliche & weltliche Chorwerk
––––––––––––––––––––––––––––––––––––––––

DR Peak RMS Duration Track
––––––––––––––––––––––––––––––––––––––––
DR13 -0.85 dB -21.03 dB 5:20 01-Messe B-dur D324 Kyrie
DR13 -1.26 dB -20.28 dB 8:28 02-Messe B-dur D324 Gloria
DR13 -1.77 dB -20.95 dB 5:35 03-Messe B-dur D324 Credo
DR11 -2.22 dB -17.76 dB 1:42 04-Messe B-dur D324 Sanctus
DR14 -4.18 dB -24.27 dB 4:45 05-Messe B-dur D324 Benedictus
DR14 -1.90 dB -20.70 dB 4:50 06-Messe B-dur D324 Agnus Dei
DR14 -2.17 dB -22.20 dB 3:10 07-Salve Regina F-dur D379
DR13 -5.49 dB -25.24 dB 2:59 08-Stabat Mater f-moll D383-I
DR13 -6.04 dB -26.17 dB 2:34 09-Stabat Mater f-moll D383-II
DR13 -3.53 dB -24.08 dB 1:40 10-Stabat Mater f-moll D383-III
DR15 -2.98 dB -23.53 dB 3:33 11-Stabat Mater f-moll D383-IV
DR14 -4.36 dB -25.00 dB 5:20 12-Stabat Mater f-moll D383-V
DR13 -10.05 dB -29.53 dB 2:26 13-Stabat Mater f-moll D383-VI
DR12 -2.17 dB -19.27 dB 1:43 14-Stabat Mater f-moll D383-VII
DR15 -8.88 dB -29.19 dB 4:21 15-Stabat Mater f-moll D383-VIII
DR12 -2.24 dB -18.63 dB 2:41 16-Stabat Mater f-moll D383-IX
DR15 -1.75 dB -26.68 dB 3:33 17-Stabat Mater f-moll D383-X
DR13 -0.01 dB -19.32 dB 4:07 18-Stabat Mater f-moll D383-XI
DR14 -0.21 dB -18.08 dB 3:15 19-Stabat Mater f-moll D383-XII
DR15 -2.26 dB -24.23 dB 3:56 20-Salve Regina B-dur D386
––––––––––––––––––––––––––––––––––––––––

Number of tracks: 20
Official DR value: DR13

Samplerate: 44100 Hz
Channels: 2
Bits per sample: 16
Bitrate: 550 kbps
Codec: FLAC
================================================================================

––––––––––––––––––––––––––––––––––––––––
Analyzed: Wolfgang Sawallisch / CD3 - Das geistliche & weltliche Chorwerk
––––––––––––––––––––––––––––––––––––––––

DR Peak RMS Duration Track
––––––––––––––––––––––––––––––––––––––––
DR14 -6.26 dB -26.20 dB 6:54 01-Messe As-dur D.678 - 1. Kyrie
DR14 -1.10 dB -19.76 dB 14:09 02-Messe As-dur D.678 - 2. Gloria
DR14 -0.01 dB -19.22 dB 11:37 03-Messe As-dur D.678 - 3. Credo
DR12 -1.26 dB -19.54 dB 3:13 04-Messe As-dur D.678 - 4. Sanctus
DR14 -1.46 dB -21.08 dB 4:26 05-Messe As-dur D.678 - 5. Benedictus
DR13 -3.91 dB -23.08 dB 7:52 06-Messe As-dur D.678 - 6. Agnus Dei
DR12 -3.77 dB -21.54 dB 2:56 07-Messe C-dur D.452 - 1. Kyrie
DR13 -1.78 dB -19.86 dB 4:05 08-Messe C-dur D.452 - 2. Gloria
DR13 -1.47 dB -20.14 dB 5:38 09-Messe C-dur D.452 - 3. Credo
DR11 -1.63 dB -18.79 dB 1:35 10-Messe C-dur D.452 - 4. Sanctus
DR16 -0.39 dB -22.52 dB 2:59 11-Messe C-dur D.452 - 5. Benedictus I
DR16 -0.39 dB -22.71 dB 4:10 12-Messe C-dur D.452 - 6. Benedictus II
DR12 -0.51 dB -20.79 dB 4:11 13-Messe C-dur D.452 - 7. Agnus Dei
––––––––––––––––––––––––––––––––––––––––

Number of tracks: 13
Official DR value: DR13

Samplerate: 44100 Hz
Channels: 2
Bits per sample: 16
Bitrate: 572 kbps
Codec: FLAC
================================================================================

––––––––––––––––––––––––––––––––––––––––
Analyzed: Wolfgang Sawallisch / CD4 - Das geistliche & weltliche Chorwerk
––––––––––––––––––––––––––––––––––––––––

DR Peak RMS Duration Track
––––––––––––––––––––––––––––––––––––––––
DR14 -3.18 dB -23.88 dB 7:14 01-Messe Es-dur D.950 - 1. Kyrie
DR14 -0.01 dB -21.47 dB 13:50 02-Messe Es-dur D.950 - 2. Gloria
DR14 -2.63 dB -23.55 dB 15:37 03-Messe Es-dur D.950 - 3. Credo
DR11 -1.49 dB -17.17 dB 3:42 04-Messe Es-dur D.950 - 4. Sanctus
DR14 -1.81 dB -22.52 dB 5:49 05-Messe Es-dur D.950 - 5. Benedictus
DR14 -2.85 dB -22.85 dB 10:44 06-Messe Es-dur D.950 - 6. Agnus Dei
DR14 -2.96 dB -23.78 dB 3:55 07-Tantum Ergo Es-dur D.962
DR14 -2.97 dB -22.84 dB 9:43 08-Offertorium B-dur D.963
––––––––––––––––––––––––––––––––––––––––

Number of tracks: 8
Official DR value: DR14

Samplerate: 44100 Hz
Channels: 2
Bits per sample: 16
Bitrate: 536 kbps
Codec: FLAC
================================================================================

––––––––––––––––––––––––––––––––––––––––
Analyzed: Wolfgang Sawallisch / CD5 - Das geistliche & weltliche Chorwerk
––––––––––––––––––––––––––––––––––––––––

DR Peak RMS Duration Track
––––––––––––––––––––––––––––––––––––––––
DR12 -1.40 dB -17.97 dB 4:04 01-Kyrie d-moll D31
DR12 -1.76 dB -20.23 dB 5:56 02-Kyrie F-dur D66
DR14 -5.18 dB -23.00 dB 5:38 03-Salve Regina B-dur D106
DR14 -0.90 dB -20.76 dB 5:39 04-Offertorium 'Totus in Corde' C-dur D136
DR14 -1.41 dB -20.86 dB 6:54 05-Stabat Mater g-moll D175
DR12 -2.13 dB -19.16 dB 3:44 06-Offertorium 'Tres sunt' a-moll D181
DR11 -0.29 dB -16.43 dB 4:55 07-Graduale C-dur D184
DR15 -0.01 dB -23.13 dB 6:20 08-Offertorium 'Salve Regina' F-dur D223
DR13 -1.20 dB -17.56 dB 4:43 09-Tatum ergo C-dur D461
DR11 -2.59 dB -19.66 dB 1:57 10-Tatum ergo C-dur D460
DR13 -0.06 dB -17.82 dB 9:01 11-Magnificat C-dur D486
DR15 -2.97 dB -23.38 dB 7:55 12-Auguste jam coelestium G-dur D488
––––––––––––––––––––––––––––––––––––––––

Number of tracks: 12
Official DR value: DR13

Samplerate: 44100 Hz
Channels: 2
Bits per sample: 16
Bitrate: 593 kbps
Codec: FLAC
================================================================================

––––––––––––––––––––––––––––––––––––––––
Analyzed: Wolfgang Sawallisch / CD6 - Das geistliche & weltliche Chorwerk
––––––––––––––––––––––––––––––––––––––––

DR Peak RMS Duration Track
––––––––––––––––––––––––––––––––––––––––
DR13 -4.97 dB -23.93 dB 9:18 01-Offertorium 'Salve Regina' A-dur D676
DR11 -7.10 dB -24.09 dB 0:47 02-Sechs Antiphonen zur Palmwelhe am Palmsonntag D696 - 1. Hosanna filio David
DR12 -6.14 dB -26.47 dB 1:30 03-Sechs Antiphonen zur Palmwelhe am Palmsonntag D696 - 2. In monte Oliveti
DR12 -1.22 dB -24.55 dB 1:23 04-Sechs Antiphonen zur Palmwelhe am Palmsonntag D696 - 3. Sanctus
DR10 -14.35 dB -31.12 dB 1:06 05-Sechs Antiphonen zur Palmwelhe am Palmsonntag D696 - 4. Pueri Hebraeorum
DR11 -7.76 dB -26.08 dB 0:48 06-Sechs Antiphonen zur Palmwelhe am Palmsonntag D696 - 5. Cum Angelis et pueris
DR11 -5.07 dB -25.27 dB 1:07 07-Sechs Antiphonen zur Palmwelhe am Palmsonntag D696 - 6. Ingrediente Domino
DR13 -7.59 dB -25.21 dB 4:41 08-Der 23.Psalm D706
DR13 -0.02 dB -21.31 dB 4:45 09-Tantum ergo C-dur D739
DR13 -0.01 dB -19.30 dB 4:07 10-Tantum ergo D-dur D750
DR17 -5.23 dB -27.49 dB 6:02 11-Salve Regina C-dur D811
DR12 -2.08 dB -21.48 dB 3:57 12-Deutsche Messe D872 - 1. Zum Eingang
DR12 -0.01 dB -17.65 dB 1:48 13-Deutsche Messe D872 - 2. Zum Gloria
DR14 -1.82 dB -21.19 dB 4:18 14-Deutsche Messe D872 - 3. Zum Evangelium & Credo
DR13 -7.13 dB -27.01 dB 1:58 15-Deutsche Messe D872 - 4. Zum Offertorium
DR12 -1.23 dB -21.81 dB 2:31 16-Deutsche Messe D872 - 5. Zum Sanctus
DR12 -4.45 dB -22.19 dB 2:32 17-Deutsche Messe D872 - 6. Nach der Wandlung
DR13 -6.05 dB -24.19 dB 2:23 18-Deutsche Messe D872 - 7. Zum Agnus Dei
DR11 -3.87 dB -23.08 dB 1:47 19-Deutsche Messe D872 - 8. Schlussgesang
DR13 -3.39 dB -21.40 dB 3:18 20-Deutsche Messe D872 - Anhang: Das Gebet des Herrn
DR14 -5.73 dB -25.95 dB 5:22 21-Der 92. Psalm D953
DR14 -3.34 dB -23.92 dB 7:22 22-Hymus an den Helligen Geist D964
––––––––––––––––––––––––––––––––––––––––

Number of tracks: 22
Official DR value: DR13

Samplerate: 44100 Hz
Channels: 2
Bits per sample: 16
Bitrate: 531 kbps
Codec: FLAC
================================================================================

––––––––––––––––––––––––––––––––––––––––
Analyzed: Wolfgang Sawallisch / CD7 - Das geistliche & weltliche Chorwerk
––––––––––––––––––––––––––––––––––––––––

DR Peak RMS Duration Track
––––––––––––––––––––––––––––––––––––––––
DR11 -18.22 dB -34.68 dB 1:05 01-Lazarus oder Die Feier der Auferstehung (Osterkantate) D689 - 1. Akt: Introd…
DR14 -8.51 dB -29.55 dB 2:06 02-Lazarus oder Die Feier der Auferstehung (Osterkantate) D689 - 1. Akt: Hier l…
DR13 -6.65 dB -26.74 dB 1:18 03-Lazarus oder Die Feier der Auferstehung (Osterkantate) D689 - 1. Akt: Noch e…
DR14 -1.69 dB -25.42 dB 2:42 04-Lazarus oder Die Feier der Auferstehung (Osterkantate) D689 - 1. Akt: Trübe …
DR15 -4.50 dB -26.00 dB 4:05 05-Lazarus oder Die Feier der Auferstehung (Osterkantate) D689 - 1. Akt: Steh' …
DR16 -3.62 dB -26.99 dB 3:45 06-Lazarus oder Die Feier der Auferstehung (Osterkantate) D689 - 1. Akt: Voll F…
DR14 -7.60 dB -28.92 dB 0:48 07-Lazarus oder Die Feier der Auferstehung (Osterkantate) D689 - 1. Akt: Kalter…
DR13 -8.35 dB -27.34 dB 1:23 08-Lazarus oder Die Feier der Auferstehung (Osterkantate) D689 - 1. Akt: Willko…
DR15 -6.33 dB -26.92 dB 3:16 09-Lazarus oder Die Feier der Auferstehung (Osterkantate) D689 - 1. Akt: Wilkom…
DR13 -4.51 dB -24.08 dB 1:12 10-Lazarus oder Die Feier der Auferstehung (Osterkantate) D689 - 1. Akt: Wenn i…
DR14 -7.23 dB -27.11 dB 2:00 11-Lazarus oder Die Feier der Auferstehung (Osterkantate) D689 - 1. Akt: O Mart…
DR12 -11.59 dB -30.44 dB 1:17 12-Lazarus oder Die Feier der Auferstehung (Osterkantate) D689 - 1. Akt: Der Tr…
DR13 -2.77 dB -23.00 dB 2:11 13-Lazarus oder Die Feier der Auferstehung (Osterkantate) D689 - 1. Akt: Wenn n…
DR12 -3.42 dB -24.64 dB 2:15 14-Lazarus oder Die Feier der Auferstehung (Osterkantate) D689 - 1. Akt: Gottes…
DR15 -4.14 dB -24.89 dB 3:00 15-Lazarus oder Die Feier der Auferstehung (Osterkantate) D689 - 1. Akt: In der…
DR11 -9.79 dB -30.59 dB 0:46 16-Lazarus oder Die Feier der Auferstehung (Osterkantate) D689 - 1. Akt: Ach, s…
DR16 -10.48 dB -31.86 dB 3:11 17-Lazarus oder Die Feier der Auferstehung (Osterkantate) D689 - 1. Akt: Jemina…
DR15 -9.81 dB -30.34 dB 4:54 18-Lazarus oder Die Feier der Auferstehung (Osterkantate) D689 - 1. Akt: So sch…
DR13 -3.71 dB -23.15 dB 2:41 19-Lazarus oder Die Feier der Auferstehung (Osterkantate) D689 - 1. Akt: Nun en…
DR15 -3.80 dB -27.53 dB 2:43 20-Lazarus oder Die Feier der Auferstehung (Osterkantate) D689 - 1. Akt: So war…
DR16 -3.83 dB -27.67 dB 4:58 21-Lazarus oder Die Feier der Auferstehung (Osterkantate) D689 - 1. Akt: O Barm…
DR12 -3.94 dB -22.40 dB 4:09 22-Lazarus oder Die Feier der Auferstehung (Osterkantate) D689 - 2. Akt: Introd…
DR15 -0.60 dB -23.57 dB 2:30 23-Lazarus oder Die Feier der Auferstehung (Osterkantate) D689 - 2. Akt: Wo bin…
DR15 -0.01 dB -20.69 dB 5:58 24-Lazarus oder Die Feier der Auferstehung (Osterkantate) D689 - 2. Akt: Schon …
DR15 -6.24 dB -28.52 dB 1:41 25-Lazarus oder Die Feier der Auferstehung (Osterkantate) D689 - 2. Akt: Wess i…
DR13 -9.71 dB -31.80 dB 1:45 26-Lazarus oder Die Feier der Auferstehung (Osterkantate) D689 - 2. Akt: So wei…
DR14 -1.34 dB -21.87 dB 6:17 27-Lazarus oder Die Feier der Auferstehung (Osterkantate) D689 - 2. Akt: Sanft …
DR15 -8.65 dB -30.66 dB 1:26 28-Lazarus oder Die Feier der Auferstehung (Osterkantate) D689 - 2. Akt: So leg…
DR13 -0.67 dB -21.24 dB 2:39 29-Lazarus oder Die Feier der Auferstehung (Osterkantate) D689 - 2. Akt: Wecke …
––––––––––––––––––––––––––––––––––––––––

Number of tracks: 29
Official DR value: DR14

Samplerate: 44100 Hz
Channels: 2
Bits per sample: 16
Bitrate: 509 kbps
Codec: FLAC
================================================================================

––––––––––––––––––––––––––––––––––––––––
Analyzed: Wolfgang Sawallisch / CD8 - Das geistliche & weltliche Chorwerk
––––––––––––––––––––––––––––––––––––––––

DR Peak RMS Duration Track
––––––––––––––––––––––––––––––––––––––––
DR15 -1.59 dB -22.55 dB 3:24 01-Lied im Freien D.572
DR13 -1.64 dB -23.45 dB 2:03 02-Räuberlied D.435 Nr.13
DR16 -2.69 dB -23.67 dB 6:24 03-Die Advokaten D.37
DR13 -3.24 dB -20.40 dB 2:49 04-Trinklied D.148
DR13 -3.55 dB -21.70 dB 2:14 05-Willkommen, lieber schöner Mai D.244
DR13 -10.96 dB -30.06 dB 0:53 06-Fischerlied D. 364
DR13 -2.73 dB -20.44 dB 0:39 07-Trinklied D.267
DR14 -2.45 dB -21.76 dB 1:36 08-Trinklied D.356
DR12 -9.15 dB -25.50 dB 0:49 09-Bergknappenlied D.268
DR14 -2.30 dB -23.29 dB 5:11 10-Ruhe, schönstes Glück der Erde D.657
DR15 -2.75 dB -22.53 dB 1:31 11-Trinklied im Winter D.242
DR13 -0.20 dB -17.88 dB 6:41 12-Gott in der Natur D.757
DR13 -4.88 dB -24.50 dB 4:03 13-Naturgenuss D.422
DR13 -1.29 dB -20.90 dB 1:19 14-Der Schnee zerrinnt D.130
DR14 -3.62 dB -22.20 dB 4:22 15-Frühlingsgesang D.243
DR14 -2.04 dB -20.85 dB 1:57 16-Trinklied im Mai D.427
DR14 -6.77 dB -26.43 dB 1:29 17-Frühlingslied D.243
DR14 -1.13 dB -22.06 dB 2:23 18-Widerspruch D.865
DR14 -3.32 dB -22.72 dB 4:35 19-Mondenschein D.875
DR13 -1.44 dB -20.26 dB 3:54 20-Nachtmusik D.848
DR12 -4.77 dB -23.24 dB 1:11 21-Goldner Schein D.357
DR13 -0.01 dB -18.94 dB 4:49 22-Frühlingslied D.914
––––––––––––––––––––––––––––––––––––––––

Number of tracks: 22
Official DR value: DR14

Samplerate: 44100 Hz
Channels: 2
Bits per sample: 16
Bitrate: 590 kbps
Codec: FLAC
================================================================================

––––––––––––––––––––––––––––––––––––––––
Analyzed: Wolfgang Sawallisch / CD9 - Das geistliche & weltliche Chorwerk
––––––––––––––––––––––––––––––––––––––––

DR Peak RMS Duration Track
––––––––––––––––––––––––––––––––––––––––
DR14 -0.01 dB -18.74 dB 6:33 01-Nachtgesang im Walde D.913
DR13 -4.30 dB -23.05 dB 3:12 02-Der Gondelfahrer D.809
DR14 -5.99 dB -25.58 dB 3:13 03-Die Nacht D.983 Nr. 4
DR13 -0.21 dB -19.92 dB 4:42 04-Nachthelle D.892
DR14 -3.43 dB -21.48 dB 4:33 05-Die Nachtigall D.724
DR12 -2.77 dB -19.10 dB 1:41 06-Lacrimosa son io D.131b
DR12 -9.89 dB -26.12 dB 3:00 07-Der Entfernten D.331
DR13 -4.96 dB -21.99 dB 2:07 08-Mailied D.129
DR16 -3.37 dB -23.30 dB 1:46 09-Zum Rundetanz D.983 Nr. 3
DR14 -0.01 dB -18.54 dB 3:24 10-Wein und Liebe D.901
DR13 -3.85 dB -20.23 dB 5:09 11-Geist der Liebe D.747
DR12 -1.91 dB -19.00 dB 1:33 12-Liebe sauseIn die Blatter D.988
DR13 -5.73 dB -24.89 dB 2:50 13-Andenken D.423
DR12 -8.76 dB -26.63 dB 1:01 14-Liebe, Leise, laBt uns singen D.635
DR14 -4.91 dB -23.87 dB 3:15 15-Erinnerungen D.424
DR14 -5.44 dB -24.32 dB 1:41 16-Widerhall D.428
DR12 -6.89 dB -22.70 dB 1:31 17-Lacrimosa son io D.131a
DR15 -1.17 dB -23.19 dB 11:05 18-Gesang der Geister uber den Wassern D.714
DR13 -8.57 dB -26.67 dB 3:56 19-Nur wer die Sehsucht kennt D.656
DR14 -1.89 dB -21.91 dB 6:26 20-Im Gegenwartigen Vergangenes D.710
DR13 -2.01 dB -19.10 dB 5:10 21-Bootsgesang D.835
––––––––––––––––––––––––––––––––––––––––

Number of tracks: 21
Official DR value: DR13

Samplerate: 44100 Hz
Channels: 2
Bits per sample: 16
Bitrate: 570 kbps
Codec: FLAC
================================================================================

––––––––––––––––––––––––––––––––––––––––
Analyzed: Wolfgang Sawallisch / CD10 - Das geistliche & weltliche Chorwerk
––––––––––––––––––––––––––––––––––––––––

DR Peak RMS Duration Track
––––––––––––––––––––––––––––––––––––––––
DR13 -0.53 dB -20.00 dB 1:33 01-Bardengesang D.147
DR14 -0.61 dB -20.56 dB 1:44 02-Trinklied aus dem 16. Jahrhundert D.847
DR12 -4.45 dB -21.26 dB 1:26 03-La pastorella al prato D.513
DR14 -3.01 dB -21.97 dB 4:09 04-Klage um Aly Bey D.140
DR13 -0.01 dB -17.17 dB 4:18 05-Schlachtgesang D.912
DR14 -7.52 dB -27.06 dB 2:05 06-Der Geistertanz D.494
DR13 -2.83 dB -20.84 dB 5:23 07-Ständchen D.920
DR14 -3.03 dB -22.33 dB 4:07 08-Das Dörfchen D.641
DR13 -2.86 dB -21.36 dB 1:21 09-Mailied D.202
DR14 -3.25 dB -20.45 dB 2:11 10-Trinklied D.75
DR12 -5.25 dB -24.30 dB 1:45 11-Dreifach ist der Schritt der Zeit D.69
DR15 -4.34 dB -25.98 dB 2:10 12-Vorüber die stöhnende Klage D.53
DR12 -0.53 dB -19.72 dB 1:39 13-Unendeliche Freude D.51
DR15 -5.69 dB -25.97 dB 3:11 14-Hier strecket der wallende Pilger D.57
DR15 -2.64 dB -22.89 dB 1:34 15-Dessen Fahne Donnerstürme wallte D.58
DR13 -1.97 dB -21.59 dB 1:51 16-Hier umarmen sich getreue Gatten D.60
DR13 -1.21 dB -20.65 dB 1:51 17-Unendliche Freude D.54
DR15 -4.05 dB -26.26 dB 2:29 18-An den Frühling D.338
DR14 -1.22 dB -20.72 dB 2:04 19-Frisch atmet des Morgens lebendiger Hauch D.67
DR15 -1.91 dB -20.94 dB 2:52 20-Punschlied D.227
DR12 -8.43 dB -25.60 dB 1:27 21-Selig durch die Liebe D.55
DR13 -3.35 dB -20.95 dB 1:24 22-Ein jugendlicher Maienschwung D.61
DR12 -1.33 dB -18.67 dB 1:28 23-Thronend auf erhab'nem Sitz D.62
DR11 -1.11 dB -20.80 dB 0:53 24-Majestat'sche Sonnenrosse D.64
DR15 -2.85 dB -22.54 dB 2:14 25-Wer die steile Sternenbahn D.63
DR13 -5.89 dB -23.63 dB 1:36 26-Liebe D.983 Nr. 2
DR13 -7.54 dB -25.41 dB 1:43 27-Die zwei Tugendwege D.71
DR15 -1.21 dB -23.09 dB 4:48 28-Dreifach ist der Schritt der Zeit D.43
––––––––––––––––––––––––––––––––––––––––

Number of tracks: 28
Official DR value: DR13

Samplerate: 44100 Hz
Channels: 2
Bits per sample: 16
Bitrate: 570 kbps
Codec: FLAC
================================================================================

––––––––––––––––––––––––––––––––––––––––
Analyzed: Wolfgang Sawallisch / CD11 - Das geistliche & weltliche Chorwerk
––––––––––––––––––––––––––––––––––––––––

DR Peak RMS Duration Track
––––––––––––––––––––––––––––––––––––––––
DR13 -0.01 dB -19.61 dB 1:16 01-Lützows wilde Jagd D.205
DR15 -1.44 dB -22.23 dB 2:15 02-Die Einsiedelei D.337
DR13 -0.59 dB -18.67 dB 1:57 03-Totengräberlied D.38
DR10 -0.62 dB -20.52 dB 1:44 04-Mailied D.199
DR14 -0.26 dB -20.05 dB 3:14 05-Flucht D.825b
DR13 -1.29 dB -20.79 dB 3:51 06-Der Morgenstern D.203
DR14 -0.43 dB -21.78 dB 5:53 07-Coronach D.836
DR14 -0.68 dB -21.43 dB 4:18 08-Wehmut D.825
DR13 -1.65 dB -22.55 dB 2:47 09-Grab und Mond D.893
DR15 -0.24 dB -20.28 dB 5:02 10-Ewige Liebe D.825a
DR17 -4.51 dB -26.12 dB 3:33 11-Zur Guten Nacht D.903
DR14 -2.07 dB -22.28 dB 17:09 12-Mirjams Siegesgesang D.942
DR13 -1.81 dB -21.55 dB 2:06 13-Jünglingswonne D.983 Nr. 1
DR15 -5.05 dB -25.56 dB 5:02 14-Das stille Lied D.916
––––––––––––––––––––––––––––––––––––––––

Number of tracks: 14
Official DR value: DR14

Samplerate: 44100 Hz
Channels: 2
Bits per sample: 16
Bitrate: 568 kbps
Codec: FLAC
================================================================================



CD Info:

Franz Schubert - Wolfgang Sawallisch - Das geistliche & weltliche Chorwerk

Label: EMI Classics
Catalog#: 5099902847429
Format: 11x CD, Album, Remastered
Country: Europe
Released: 2011
Genre: Classical

Tracklist:

Disc 1:

1 Kyrie in B flat major D45 2:29
2 Kyrie in D minor D49 5:28
Mass in F major D105
3 I. Kyrie 7:44
4 II. Gloria 12:16
5 III. Credo 8:32
6 IV. Sanctus 2:15
7 V. Benedictus 4:22
8 VI. Agnus Dei (with Dona nobis pacem) 12:23
Mass in G major D167
9 I. Kyrie 3:45
10 II. Gloria 2:42
11 III. Credo 3:45
12 IV. Sanctus 1:14
13 V. Benedictus 4:42
14 VI. Agnus Dei 5:16

Disc 2:

Mass in B flat major D324
1 I. Kyrie 5:20
2 II. Gloria 8:27
3 III. Credo 5:34
4 IV. Sanctus 1:41
5 V. Benedictus 4:44
6 VI. Agnus Dei 4:44
7 Deutsches Salve Regina in F D379 3:03
Stabat Mater D383
8 I. Jesus Christus schwebt am Kreuzel (Chor) 3:01
9 II. Bei des Mittlers Kreuze standen (soprano) 2:33
10 III. Liebend neiget er sein Antlitz (Chor) 1:40
11 IV. Engel freuten sich der Wonne, jener Wonne (soprano/tenor) 3:33
12 V. Wer wind Zähren sanften Mitleids (Chor) 5:19
13 VI. Ach, was hätten wir empfunden (tenor) 2:25
14 VII. Erben sollen sie am Throne (Chor) 1:43
15 VIII. Sohn des Vaters, aber leiden (bass) 4:20
16 IX. O du herrlicher Vollender (Chor) 2:40
17 X. Erdenfreuden und ihr Elend (soprano/tenor/bass) 3:33
18 XI. Daß dereinst wir, wenn im Tode (soprano/tenor/bass/Chor) 4:07
19 XII. Amen, amen, amen! (Chor) 3:08
20 Salve Regina in B flat major D386 3:57

Disc 3:

Mass in A flat major D678 (1993 Digital Remaster)
1 I. Kyrie 6:51
2 II. Gloria 14:03
3 III. Credo 11:31
4 IV. Sanctus 3:08
5 V. Benedictus 4:20
6 VI. Agnus Dei 7:41
Mass in C major D452
7 Kyrie 2:57
8 Gloria 4:05
9 Credo 5:38
10 Sanctus 1:35
11 Benedictus I 2:59
12 Benedictus II 4:09
13 Agnus Dei 4:11

Disc 4:

Mass in E flat major D950 (1993 Digital Remaster)
1 I. Kyrie 7:15
2 II. Gloria 13:48
3 III. Credo 15:37
4 IV. Sanctus 3:41
5 V. Benedictus 5:48
6 VI. Agnus Dei 10:39
7 Tantum ergo in E flat major D962 3:51
8 Offertorium in B flat D963 9:43

Disc 5:

1 Kyrie in D minor D31 3:58
2 Kyrie in F major D66 (1993 Digital Remaster) 5:49
3 Salve Regina in B flat major D106 (1997 Digital Remaster) 5:31
4 Offertorium "Totus in corde langueo" in C major D136 5:33
5 Stabat Mater in G minor D175 6:47
6 Offertorium "Tres sunt" in A minor D181 (1993 Digital Remaster) 3:38
7 Gradual in C major D184 (1993 Digital Remaster) 4:49
8 Offertorium "Salve Regina" in F major D223 6:14
9 Tantum ergo in C major D461 4:36
10 Tantum ergo in C major D460 1:51
11 Magnificat in C D486 8:54
12 Auguste jam coelestium in G major D488 7:55

Disc 6:

1 Salve Regina in A major D676 9:12
Six Antiphons for the Blessings of Branches on Palm Sunday D696
2 Hosanna filio David 0:45
3 In monte Oliveti 1:27
4 Sanctus 1:20
5 Pueri Hebraeorum 1:02
6 Cum Angelis et pueris 0:45
7 Ingrediente Domino 0:59
8 Psalm No. 23 D706 (1993 Digital Remaster) 4:36
9 Tantum ergo in C major D739 (1993 Digital Remaster) 4:37
10 Tantum ergo in D major D750 4:03
11 Salve Regina in C major D811 5:55
Deutsche Messe D872
12 Zum Einzug: Wohin soll ich mich wenden 3:53
13 Zum Gloria: Ehre, Ehre, sei Gott in der Höhe! 1:43
14 Zum Evangelium und zum Credo: Noch lag die Schöpfung formlos da 4:13
15 Zum Offertorium: Du gabst, o Herr, mir Sein und Leben 1:54
16 Zum Sanctus: Heilig! heilig! heilig! 2:27
17 Nach der Wandlung: Betrachtrend Deine Hul und Güte 2:29
18 Zum Agnus Dei: Mein Heiland, Herr und Meister! 2:20
19 Schlussgesang: Herr, Du hast mein Flehn vernommen 1:44
20 Das Gebet des Herrn 3:09
21 Psalm No. 92 D953 (1993 Digital Remaster) 5:17
22 Hymnus an den Heiligen Geist (second version) D964 (1993 Digital Remaster) 7:21

Disc 7:

Lazarus (Der Feier der Auferstehung) D689, Erste Handlung
1 Introduktion (Orchester) 1:05
2 Hier laßt mich ruh'n die letzte Stunde (Lazarus) 2:06
3 Noch einem Augenblick? (Martha) 1:18
4 Trübe nicht mit Klagen seine Seele 2:42
5 Steh' im letzten Kampf dem Müden (Maria) 4:05
6 Voll Friede, ja, voll Fried' ist die Seele (Lazarus/Nathanael) 3:45
7 Kalter Schweiß rinnt von der Stirn (Nathanael) 0:47
8 Wilkommen, mein Nathanael (Lazarus/Nathanael) 1:22
9 Wenn ich ihm nachgerungen habe (Nathanael) 3:15
10 Nathanael, bewundern kann ich dich (Martha) 1:12
11 O Martha, o Martha, bliebst du stiller (Maria/Lazarus) 2:00
12 Der Trost begleite dich hinüber 1:17
13 Wenn nun mit tausendfachen Qualen 2:11
14 Gottes Liebe, du bist seine Zuversicht 2:14
15 In der Leiden bängster Nacht (Maria) 2:59
16 Ach, so find' ich ihn noch (Jemina) 0:46
17 Jemina, Tochter der Auferstehung (Lazarus) 3:11
18 So schlummert auf Rosen 4:54
19 Nun entflog auf schnellen Schwingen (Jemina) 2:41
20 So, war mit, Lazarus (Jemina/Maria/Martha/Nathanael/Lazarus) 2:42
21 O Barmherziger, O verlaß ihn nicht (Jemina/Maria/Martha/Chor) 4:52
Lazarus (Der Feier der Auferstehung) D689, Zweite Handlung
22 Introduktion (Orchester) 4:09
23 Wo bin ich? 2:30
24 Schon bereitet ihn Gräber (Simon) 5:58
25 Wess ist der Klage Stimme (Nathanael/Simon) 1:41
26 So weile hier, mein Freund (Nathanael) 1:45
27 Sanft und still … Bestreut den Weg mit Myrthenlaub (Chor) 6:17
28 So legt ihn in die Blumen (Nathanael) 1:25
29 Wecke sie nicht (Martha) 2:39

Disc 8:

1 Lied im Freien D572 (1997 Digital Remaster) 3:19
Die Bürgschaft D435 (1997 Digital Remaster)
2 No. 13, Räuberlied 1:57
3 Die Advokaten D37 (1997 Digital Remaster) 6:19
4 Trinklied D148 (1997 Digital Remaster) 2:46
5 Wilkommen, lieber schöner Mai D244 (1997 Digital Remaster) 2:07
6 Fischerlied D364 (1997 Digital Remaster) 0:48
7 Trinklied D267 (1997 Digital Remaster) 0:31
8 Trinklied D356 (1997 Digital Remaster) 1:33
9 Bergknappenlied D268 (1997 Digital Remaster) 0:44
10 Ruhe, schönstes Glück der Erde D657 (1997 Digital Remaster) 5:06
11 Trinklied im Winter D242 (1997 Digital Remaster) 1:25
12 Gott in der Natur D757 (1997 Digital Remaster) 6:35
13 Naturgenuß D422 (1997 Digital Remaster) 3:57
14 Der Schnee zerrinnt D130 (1997 Digital Remaster) 1:13
15 Frühlingsgesang D740 (1997 Digital Remaster) 4:16
16 Trinklied im Mai D427 (1997 Digital Remaster) 1:52
17 Frühlingslied D243 (1997 Digital Remaster) 1:24
18 Widerspruch D865 (1997 Digital Remaster) 2:18
19 Mondenschein D875 (1997 Digital Remaster) 4:30
20 Nachtmusik D848 (1997 Digital Remaster) 3:19
21 Goldner Schein D357 (1997 Digital Remaster) 1:09
22 Frühlingslied D914 (1997 Digital Remaster) 4:49

Disc 9:

1 Nachtgesang im Walde D913 (1997 Digital Remaster) 6:28
2 Der Gondelfahrer D809 (1997 Digital Remaster) 3:04
3 Die Nacht D983c (1997 Digital Remaster) 3:07
4 Nachthelle D892 (1997 Digital Remaster) 4:34
5 Die Nachtigall D724 (1997 Digital Remaster) 4:27
6 Lacrimoso son io D131b (1997 Digital Remaster) 1:36
7 Der Entfernten D331 (1997 Digital Remaster) 2:55
8 Mailied D129 (1997 Digital Remaster) 2:05
9 Zum Rundetanz D983b (1997 Digital Remaster) 1:42
10 Wein und Liebe D901 (1997 Digital Remaster) 3:18
11 Geist der Liebe D747 (1997 Digital Remaster) 5:03
12 Liebe säslein die Blätter D988 (1997 Digital Remaster) 1:28
13 Andenken D423 (1997 Digital Remaster) 2:44
14 Leise, leise, laßt uns singen D635 (1997 Digital Remaster) 0:55
15 Erinnerungen D424 (1997 Digital Remaster) 3:09
16 Widerhall D428 (1997 Digital Remaster) 1:34
17 Lacrimoso son io D131a 1:26
18 Gesang der Geister über den Wassern D714 (1997 Digital Remaster) 10:57
19 Nur wer die Sehnsucht kennt D656 (1997 Digital Remaster) 3:50
20 Im Gegenwärtigen Vergangenes D710 (1997 Digital Remaster) 6:20
21 Bootgesang D835 (1997 Digital Remaster) 5:11

Disc 10:

1 Bardengesang D147 (1997 Digital Remaster) 1:28
2 Trinklied aus dem 16 Jahrhundert D847 (1997 Digital Remaster) 1:38
3 La pastorella al prato D513 (1997 Digital Remaster) 1:20
4 Klage um Ali Bey D140 (1997 Digital Remaster) 4:02
5 Schlachtgesang D912 (1997 Digital Remaster) 4:13
6 Der Geistertanz D494 (1997 Digital Remaster) 2:00
7 Ständchen (Zögernd leise) D920 (1997 Digital Remaster) 5:17
8 Das Dörfchen D641 (1997 Digital Remaster) 4:02
9 Mailied D202 (1997 Digital Remaster) 1:17
10 Trinklied D75 (1997 Digital Remaster) 2:06
11 Dreifach ist der Schritt der Zeit D69 (1997 Digital Remaster) 1:39
12 Vöruber die stöhnende Klage D53 (1997 Digital Remaster) 2:03
13 Unendliche Freude D51 (1997 Digital Remaster) 1:32
14 Hier strecket der wallende Pilger D57 (1997 Digital Remaster) 3:05
15 Dessen Fahne Donnerstürme wallte D58 (1997 Digital Remaster) 1:27
16 Hier umarmen sich getreue Gatten D60 1:45
17 Unendliche Freude D54 (1997 Digital Remaster) 1:45
18 An den Frühling D338 (1997 Digital Remaster) 2:22
19 Frisch atmet des Morgens lebendiger Hauch D67 (1997 Digital Remaster) 1:57
20 Punschlied D253 (1997 Digital Remaster) 2:45
21 Selig durch die Liebe D55 (1997 Digital Remaster) 1:20
22 Ein jugendlicher Maienschwung D61 (1997 Digital Remaster) 1:24
23 Thronend auf erhab'nem Sitz D62 (1997 Digital Remaster) 1:24
24 Majestät' sche Sonnenrosse D64 (1997 Digital Remaster) 0:50
25 Wer die stelle Sternenbahn D63 (1997 Digital Remaster) 2:08
26 Liebe D983a (1997 Digital Remaster) 1:29
27 Die zwei Tugendwege D71 (1997 Digital Remaster) 1:37
28 Dreifach ist der Schritt der Zeit D43 (1997 Digital Remaster) 4:50

Disc 11:

1 Lützows wilde Jagd D205 (1997 Digital Remaster) 1:13
2 Einsiedelei D337 (1997 Digital Remaster) 2:10
3 Totengräberlied D38 (1997 Digital Remaster) 1:53
4 Mailied D199 (1997 Digital Remaster) 1:40
5 Flucht D825b (1997 Digital Remaster) 3:10
6 Der Morgenstern D203 (1997 Digital Remaster) 3:45
7 Coronach D836 (1997 Digital Remaster) 5:48
8 Wehmut D825 (1997 Digital Remaster) 4:13
9 Grab und Mond D893 (1997 Digital Remaster) 2:39
10 Ewige Liebe D825b (1981 Digital Remaster) 4:55
11 Zur guten Nacht D903 (1997 Digital Remaster) 3:29
12 Mirjams Siegesgesang D942 (1997 Digital Remaster) 17:02
13 Jünglingswonne D983a (1981 Digital Remaster) 2:01
14 Das stille Lied D916 (1997 Digital Remaster) 5:03

Notes:

Recorded between 1977 & 1983 as co-production between EMI Elektrola and Bavarian Radio.

Schubert, Sawallisch - Sacred & Secular Choral Works [EMI 5099902847429] {Europe 2011} (11 CD Box)


Franz Schubert’s choral works have certainly never achieved the popularity or the impact of his late symphonies, of some of the piano and chamber works, or of his best-known songs. And yet his extensive choral oeuvre is no less important, and no less characteristic.

At the same time as Schubert was producing his own response to the Classical orchestral tradition in his first six symphonies, he also composed the four early masses. In terms of both style and form, these settings are traditional in character, with songful melodies adding a personal note to the fresh and inventive scores. They were written for the parish church in the Viennese suburb of Lichtental, where Schubert’s brother Ferdinand was the church organist.

The Mass in A flat major of 1822 is far more ambitious, displaying a new and decidedly Romantic style. Even in his early settings of the Mass, Schubert had always omitted the declara­tion of belief in the "holy Catholic and apostolic Church" in the Credo, and in the new work he also left out the "expectation of the resurrection of the dead". Variations in the text of the Mass were no rarity in Schubert's day: it was what the priest recited that counted, not what the choir sang. But even so, the deliberate omission of two such central articles of faith represented the expression of a personal creed that deviated from accepted dogma. The restrained, yet ‘over-individual’ style of composition (no solo parts!) that Schubert used in the Credo of the A flat major mass in particular only seems to be inconsistent with this subjective approach: the personal declaration of faith is a prerequisite for participation in the collective act. Following long-established church music tradition, the "Et incarnatus est" is an exception to the rule: the miracle of the incarnation stands out with eight-part writing full of subtle harmonies.

We find a similar situation in the E flat major mass: here, however, the "Incarnatus" is a floa­t­ing cantilena sung by the tenor soloist. In fact, in this last mass of Schubert’s, written in the year of his death, 1828, the music reaches extreme levels of contrast and expressive values. The dimensions of the work were designed with the Imperial Court Chapel in mind, but it was not welcomed by this stronghold of Classicistic tradition. It wasn’t until the late 19th century that the Schubert masses began to have an impact: by this time, they were performed as concert pieces, as they had been banned for liturgical use owing to the textual omissions.

The one exception to this was the so-called "German Mass", which represents a special type of setting in use in Bavaria and Austria from roughly 1780 on. Here, the Mass was held in German, with German songs taking the place of the Latin hymns. The melodies Schubert wrote for this purpose are still found in hymnals today.

Schubert wrote smaller-scale sacred works in all periods of his career. Although adapted to suit the circumstances in each case, they are not without original features, such as the expressive Stabat mater in G minor of 1815, a remarkable work for an 18-year-old. The fact that Schubert chose to use Friedrich Klopstock’s Protestant German translation for an­other Stabat mater (in F minor, composed in 1816), on the other hand, was a programmatic decision. Sacred works setting a German text offered him the chance to ex-periment without taking Church customs into consideration. Klopstock’s text inspired him to write a cantata in several parts that actually leans in the direction of an oratorio. But Schubert’s real contribution to the great tradition of Viennese oratorio, namely his religious drama Lazarus (1820), remained unfinished. It is nonetheless a forward-looking work, in which Schubert tries to overcome the traditional division into recitatives, arias and choral movements in favour of a fully-composed sequence. The cantata Miriams Siegesgesang of 1828, on the other hand, is accompanied by the piano alone, and returns clearly to Baroque formal models.

One peculiar piece in the composer’s choral œuvre is his setting of the 92nd Psalm in Hebrew. Schubert wrote it in 1828 for Vienna’s Jewish parish, which had decided to pursue a course of radical reform at the time: polyphonic music and German sermons in the syna­gogue – this was nothing short of a revolution! The 23rd Psalm, on the other hand, was written for a singing class at the Conservatoire, and forges a link to Schubert’s secular choral pieces. He wrote many of the latter, with and without piano accompaniment, for performance at evening get-togethers. Among these works we also find little gems, some of which re­main to this day the epitome of the Romantic choir sound. For example, Gesang der Geister über den Wassern (1821) for eight male voices and low strings, or Nachtgesang im Walde (1827) with four horns as accompaniment. EMIclassics



NOTICE!: The FLAC version has the artwork integrated, no need to load it extra. Only MP3 downloaders will have download the artwork extra!

// classical music //

// all of my uploads //

Password:

finest-hq-audio
Links:

Filepost