Subcategories

Secret - Yoohoo (2013)

Posted By: Mendose
Secret - Yoohoo (2013)

Secret - Yoohoo (2013)
Korean | MP4 | *1080p* 1920x1080 | 23.976 fps | AVC 5991 Kbps | AAC 192 Kbps | 3:32 min | 156 MB
Korean Pop


Secret (often stylized as SECRET) is a South Korean K-pop girl group formed by TS Entertainment in 2009. Consisting of four members, Jeon Hyosung, Jung Hana, Song Jieun and Han Sunhwa, the group released their debut single, "I Want You Back" on October 13, 2009.

General
Complete name : secret_-_yoohoo_mv_1080.mp4
Format : MPEG-4
Format profile : Base Media / Version 2
Codec ID : mp42
File size : 156 MiB
Duration : 3mn 32s
Overall bit rate mode : Variable
Overall bit rate : 6 185 Kbps
Encoded date : UTC 2013-04-28 18:14:57
Tagged date : UTC 2013-04-28 18:14:57
gsst : 0
gstd : 212276
gssd : BCE6F0F68HH1367292063817507

Video
ID : 1
Format : AVC
Format/Info : Advanced Video Codec
Format profile : High@L4.0
Format settings, CABAC : Yes
Format settings, ReFrames : 1 frame
Codec ID : avc1
Codec ID/Info : Advanced Video Coding
Duration : 3mn 32s
Bit rate : 5 991 Kbps
Maximum bit rate : 12.3 Mbps
Width : 1 920 pixels
Height : 1 080 pixels
Display aspect ratio : 16:9
Frame rate mode : Constant
Frame rate : 23.976 fps
Color space : YUV
Chroma subsampling : 4:2:0
Bit depth : 8 bits
Scan type : Progressive
Bits/(Pixel*Frame) : 0.120
Stream size : 151 MiB (97%)
Tagged date : UTC 2013-04-28 18:15:11

Audio
ID : 2
Format : AAC
Format/Info : Advanced Audio Codec
Format profile : LC
Codec ID : 40
Duration : 3mn 32s
Bit rate mode : Variable
Bit rate : 192 Kbps
Maximum bit rate : 201 Kbps
Channel(s) : 2 channels
Channel positions : Front: L R
Sampling rate : 44.1 KHz
Compression mode : Lossy
Stream size : 4.86 MiB (3%)
Title : IsoMedia File Produced by Google, 5-11-2011
Encoded date : UTC 2013-04-28 18:15:07
Tagged date : UTC 2013-04-28 18:15:11


Screenshots:

Secret - Yoohoo (2013)

Secret - Yoohoo (2013)

Secret - Yoohoo (2013)

Secret - Yoohoo (2013)

Secret - Yoohoo (2013)

Secret - Yoohoo (2013)

Secret - Yoohoo (2013)


Please send me PM if any of my links is broken.

[ MY BLOG ] | [ RSS Channel ]