Subcategories

Seether - Poison the Parish (Deluxe Edition) (2017)

Posted By: delpotro
Seether - Poison the Parish (Deluxe Edition) (2017)

Seether - Poison the Parish (Deluxe Edition) (2017)
EAC Rip | FLAC (tracks+log+.cue) - 418 Mb | MP3 CBR 320 kbps - 137 Mb | 00:59:53
Alternative Metal, Hard Rock, Post-Grunge | Label: Concord Bicycle Music, Canine Riot Records

SEETHER returns with their seventh full-length studio album, entitled Poison the Parish. The first release via front man Shaun Morgan's new label imprint Canine Riot Records, Poison the Parish is among the heaviest and emotionally pure efforts of the band's illustrious career. Recorded at Blackbird Studio in Nashville, Tennessee, Poison the Parish marks the first album produced in its entirety by the band's lead singer and songwriter, Shaun Morgan. Playing with a newfound ferocity and purpose, the new material gelled quickly providing Morgan's dense, melodic grooves and brooding subject matter a gritty luster and room to breathe. Fifteen years deep into an incredibly consistent and rewarding career, Seether continues to thrive, pushing their creative boundaries while remaining true to their fiercely loyal, worldwide fan base. Poison the Parish is Seether at their very best, a gripping and self-assured affirmation of a quintessential hard rock band in peak form.
Tracklist:
1. Stoke The Fire
2. Betray And Degrade
3. Something Else
4. I'll Survive
5. Let You Down
6. Against the Wall
7. Let Me Heal
8. Saviours
9. Nothing Left
10. Count Me Out
11. Emotionless
12. Sell My Soul
13. Feels Like Dying
14. Misunderstood
15. Take a Minute

Exact Audio Copy V1.1 from 23. June 2015

EAC extraction logfile from 30. September 2017, 19:17

Seether / Poison The Parish [Deluxe Edition]

Used drive : HL-DT-STBDDVDRW CH30N Adapter: 1 ID: 0

Read mode : Secure
Utilize accurate stream : Yes
Defeat audio cache : Yes
Make use of C2 pointers : No

Read offset correction : 6
Overread into Lead-In and Lead-Out : No
Fill up missing offset samples with silence : Yes
Delete leading and trailing silent blocks : No
Null samples used in CRC calculations : Yes
Used interface : Native Win32 interface for Win NT & 2000
Gap handling : Appended to previous track

Used output format : User Defined Encoder
Selected bitrate : 1024 kBit/s
Quality : High
Add ID3 tag : No
Command line compressor : C:\Program Files (x86)\Exact Audio Copy\Flac\flac.exe
Additional command line options : -8 -e -V -T "ARTIST=%artist%" -T "TITLE=%title%" -T "ALBUM=%albumtitle%" -T "DATE=%year%" -T "TRACKNUMBER=%tracknr%" -T "GENRE=%genre%" -T "PERFORMER=%albuminterpret%" -T "COMPOSER=%composer%" %haslyrics%–tag-from-file=LYRICS="%lyricsfile%"%haslyrics% -T "ALBUMARTIST=%albumartist%" -T "DISCNUMBER=%cdnumber%" -T "TOTALDISCS=%totalcds%" -T "TOTALTRACKS=%numtracks%" -T "COMMENT=%comment%" %source% -o %dest%


TOC of the extracted CD

Track | Start | Length | Start sector | End sector
––––––––––––––––––––––––––––-
1 | 0:00.00 | 3:44.61 | 0 | 16860
2 | 3:44.61 | 4:04.26 | 16861 | 35186
3 | 7:49.12 | 3:42.67 | 35187 | 51903
4 | 11:32.04 | 3:38.29 | 51904 | 68282
5 | 15:10.33 | 4:10.16 | 68283 | 87048
6 | 19:20.49 | 3:50.59 | 87049 | 104357
7 | 23:11.33 | 3:52.49 | 104358 | 121806
8 | 27:04.07 | 3:22.08 | 121807 | 136964
9 | 30:26.15 | 3:36.65 | 136965 | 153229
10 | 34:03.05 | 3:50.33 | 153230 | 170512
11 | 37:53.38 | 5:21.13 | 170513 | 194600
12 | 43:14.51 | 4:17.50 | 194601 | 213925
13 | 47:32.26 | 4:03.46 | 213926 | 232196
14 | 51:35.72 | 3:47.52 | 232197 | 249273
15 | 55:23.49 | 4:29.27 | 249274 | 269475


Track 1

Filename D:\Archived Music\EAC Rips\Seether - Poison The Parish [Deluxe Edition] (2017) [FLAC]\01 - Stoke The Fire.wav

Pre-gap length 0:00:02.00

Peak level 97.7 %
Extraction speed 3.7 X
Track quality 100.0 %
Test CRC A43F4EC4
Copy CRC A43F4EC4
Accurately ripped (confidence 18) [08172658] (AR v2)
Copy OK

Track 2

Filename D:\Archived Music\EAC Rips\Seether - Poison The Parish [Deluxe Edition] (2017) [FLAC]\02 - Betray And Degrade.wav

Peak level 97.5 %
Extraction speed 1.2 X
Track quality 99.9 %
Test CRC A034E84B
Copy CRC A034E84B
Accurately ripped (confidence 18) [D399E75F] (AR v2)
Copy OK

Track 3

Filename D:\Archived Music\EAC Rips\Seether - Poison The Parish [Deluxe Edition] (2017) [FLAC]\03 - Something Else.wav

Peak level 98.0 %
Extraction speed 1.4 X
Track quality 100.0 %
Test CRC 264CC3F4
Copy CRC 264CC3F4
Accurately ripped (confidence 18) [B14E60E8] (AR v2)
Copy OK

Track 4

Filename D:\Archived Music\EAC Rips\Seether - Poison The Parish [Deluxe Edition] (2017) [FLAC]\04 - I'll Survive.wav

Peak level 97.7 %
Extraction speed 1.4 X
Track quality 100.0 %
Test CRC 9328B7C0
Copy CRC 9328B7C0
Accurately ripped (confidence 18) [D717EB96] (AR v2)
Copy OK

Track 5

Filename D:\Archived Music\EAC Rips\Seether - Poison The Parish [Deluxe Edition] (2017) [FLAC]\05 - Let You Down.wav

Peak level 97.7 %
Extraction speed 1.6 X
Track quality 100.0 %
Test CRC 0620C9CF
Copy CRC 0620C9CF
Accurately ripped (confidence 19) [8FDEB1C6] (AR v2)
Copy OK

Track 6

Filename D:\Archived Music\EAC Rips\Seether - Poison The Parish [Deluxe Edition] (2017) [FLAC]\06 - Against The Wall.wav

Peak level 96.8 %
Extraction speed 1.6 X
Track quality 100.0 %
Test CRC 2D99B77B
Copy CRC 2D99B77B
Accurately ripped (confidence 18) [9D2821B1] (AR v2)
Copy OK

Track 7

Filename D:\Archived Music\EAC Rips\Seether - Poison The Parish [Deluxe Edition] (2017) [FLAC]\07 - Let Me Heal.wav

Peak level 97.2 %
Extraction speed 1.7 X
Track quality 100.0 %
Test CRC DFB82C57
Copy CRC DFB82C57
Accurately ripped (confidence 18) [8FF41955] (AR v2)
Copy OK

Track 8

Filename D:\Archived Music\EAC Rips\Seether - Poison The Parish [Deluxe Edition] (2017) [FLAC]\08 - Saviours.wav

Peak level 97.7 %
Extraction speed 1.7 X
Track quality 100.0 %
Test CRC 3ED1647D
Copy CRC 3ED1647D
Accurately ripped (confidence 18) [2689A819] (AR v2)
Copy OK

Track 9

Filename D:\Archived Music\EAC Rips\Seether - Poison The Parish [Deluxe Edition] (2017) [FLAC]\09 - Nothing Left.wav

Peak level 97.7 %
Extraction speed 1.8 X
Track quality 100.0 %
Test CRC AB0C947E
Copy CRC AB0C947E
Accurately ripped (confidence 18) [1B3BF4BD] (AR v2)
Copy OK

Track 10

Filename D:\Archived Music\EAC Rips\Seether - Poison The Parish [Deluxe Edition] (2017) [FLAC]\10 - Count Me Out.wav

Peak level 97.2 %
Extraction speed 1.9 X
Track quality 100.0 %
Test CRC F8FCB3E8
Copy CRC F8FCB3E8
Accurately ripped (confidence 18) [233812CA] (AR v2)
Copy OK

Track 11

Filename D:\Archived Music\EAC Rips\Seether - Poison The Parish [Deluxe Edition] (2017) [FLAC]\11 - Emotionless.wav

Peak level 97.7 %
Extraction speed 2.0 X
Track quality 100.0 %
Test CRC 68D200BF
Copy CRC 68D200BF
Accurately ripped (confidence 18) [3CBB6E7D] (AR v2)
Copy OK

Track 12

Filename D:\Archived Music\EAC Rips\Seether - Poison The Parish [Deluxe Edition] (2017) [FLAC]\12 - Sell My Soul.wav

Peak level 96.8 %
Extraction speed 2.1 X
Track quality 100.0 %
Test CRC 6AF071D4
Copy CRC 6AF071D4
Accurately ripped (confidence 18) [C2E1F124] (AR v2)
Copy OK

Track 13

Filename D:\Archived Music\EAC Rips\Seether - Poison The Parish [Deluxe Edition] (2017) [FLAC]\13 - Feels Like Dying.wav

Peak level 97.2 %
Extraction speed 2.1 X
Track quality 100.0 %
Test CRC A19872F2
Copy CRC A19872F2
Accurately ripped (confidence 18) [35183DC6] (AR v2)
Copy OK

Track 14

Filename D:\Archived Music\EAC Rips\Seether - Poison The Parish [Deluxe Edition] (2017) [FLAC]\14 - Misunderstood.wav

Peak level 97.3 %
Extraction speed 2.1 X
Track quality 100.0 %
Test CRC A16B70FA
Copy CRC A16B70FA
Accurately ripped (confidence 18) [1885AB91] (AR v2)
Copy OK

Track 15

Filename D:\Archived Music\EAC Rips\Seether - Poison The Parish [Deluxe Edition] (2017) [FLAC]\15 - Take A Minute.wav

Peak level 97.7 %
Extraction speed 2.2 X
Track quality 100.0 %
Test CRC 5A2790CF
Copy CRC 5A2790CF
Accurately ripped (confidence 18) [416D067B] (AR v2)
Copy OK


All tracks accurately ripped

No errors occurred

End of status report

–– CUETools DB Plugin V2.1.6

[CTDB TOCID: svB00QfqIKHvydt.9oLG3ULxZgg-] found
Submit result: svB00QfqIKHvydt.9oLG3ULxZgg- has been confirmed
Track | CTDB Status
1 | (74/75) Accurately ripped
2 | (74/75) Accurately ripped
3 | (74/75) Accurately ripped
4 | (74/75) Accurately ripped
5 | (74/75) Accurately ripped
6 | (74/75) Accurately ripped
7 | (74/75) Accurately ripped
8 | (74/75) Accurately ripped
9 | (74/75) Accurately ripped
10 | (74/75) Accurately ripped
11 | (73/75) Accurately ripped
12 | (73/75) Accurately ripped
13 | (73/75) Accurately ripped
14 | (74/75) Accurately ripped
15 | (74/75) Accurately ripped


==== Log checksum A12EB4A4A3B18A51ADF96B6EDC5262B2C9C0B206A6A2B77DAE36054369920983 ====

––––––––––––––––––––––––––––––

Exact Audio Copy V1.1 from 23. June 2015

EAC extraction logfile from 30. September 2017, 19:17

Seether / Poison The Parish [Deluxe Edition]

Used drive : HL-DT-STBDDVDRW CH30N Adapter: 1 ID: 0

Read mode : Secure
Utilize accurate stream : Yes
Defeat audio cache : Yes
Make use of C2 pointers : No

Read offset correction : 6
Overread into Lead-In and Lead-Out : No
Fill up missing offset samples with silence : Yes
Delete leading and trailing silent blocks : No
Null samples used in CRC calculations : Yes
Used interface : Native Win32 interface for Win NT & 2000
Gap handling : Appended to previous track

Used output format : User Defined Encoder
Selected bitrate : 1024 kBit/s
Quality : High
Add ID3 tag : No
Command line compressor : C:\Program Files (x86)\Exact Audio Copy\Flac\flac.exe
Additional command line options : -8 -e -V -T "ARTIST=%artist%" -T "TITLE=%title%" -T "ALBUM=%albumtitle%" -T "DATE=%year%" -T "TRACKNUMBER=%tracknr%" -T "GENRE=%genre%" -T "PERFORMER=%albuminterpret%" -T "COMPOSER=%composer%" %haslyrics%–tag-from-file=LYRICS="%lyricsfile%"%haslyrics% -T "ALBUMARTIST=%albumartist%" -T "DISCNUMBER=%cdnumber%" -T "TOTALDISCS=%totalcds%" -T "TOTALTRACKS=%numtracks%" -T "COMMENT=%comment%" %source% -o %dest%


TOC of the extracted CD

Track | Start | Length | Start sector | End sector
––––––––––––––––––––––––––––-
1 | 0:00.00 | 3:44.61 | 0 | 16860
2 | 3:44.61 | 4:04.26 | 16861 | 35186
3 | 7:49.12 | 3:42.67 | 35187 | 51903
4 | 11:32.04 | 3:38.29 | 51904 | 68282
5 | 15:10.33 | 4:10.16 | 68283 | 87048
6 | 19:20.49 | 3:50.59 | 87049 | 104357
7 | 23:11.33 | 3:52.49 | 104358 | 121806
8 | 27:04.07 | 3:22.08 | 121807 | 136964
9 | 30:26.15 | 3:36.65 | 136965 | 153229
10 | 34:03.05 | 3:50.33 | 153230 | 170512
11 | 37:53.38 | 5:21.13 | 170513 | 194600
12 | 43:14.51 | 4:17.50 | 194601 | 213925
13 | 47:32.26 | 4:03.46 | 213926 | 232196
14 | 51:35.72 | 3:47.52 | 232197 | 249273
15 | 55:23.49 | 4:29.27 | 249274 | 269475


Track 1

Filename D:\Archived Music\EAC Rips\Seether - Poison The Parish [Deluxe Edition] (2017) [FLAC]\01 - Stoke The Fire.wav

Pre-gap length 0:00:02.00

Peak level 97.7 %
Extraction speed 3.7 X
Track quality 100.0 %
Test CRC A43F4EC4
Copy CRC A43F4EC4
Accurately ripped (confidence 18) [08172658] (AR v2)
Copy OK

Track 2

Filename D:\Archived Music\EAC Rips\Seether - Poison The Parish [Deluxe Edition] (2017) [FLAC]\02 - Betray And Degrade.wav

Peak level 97.5 %
Extraction speed 1.2 X
Track quality 99.9 %
Test CRC A034E84B
Copy CRC A034E84B
Accurately ripped (confidence 18) [D399E75F] (AR v2)
Copy OK

Track 3

Filename D:\Archived Music\EAC Rips\Seether - Poison The Parish [Deluxe Edition] (2017) [FLAC]\03 - Something Else.wav

Peak level 98.0 %
Extraction speed 1.4 X
Track quality 100.0 %
Test CRC 264CC3F4
Copy CRC 264CC3F4
Accurately ripped (confidence 18) [B14E60E8] (AR v2)
Copy OK

Track 4

Filename D:\Archived Music\EAC Rips\Seether - Poison The Parish [Deluxe Edition] (2017) [FLAC]\04 - I'll Survive.wav

Peak level 97.7 %
Extraction speed 1.4 X
Track quality 100.0 %
Test CRC 9328B7C0
Copy CRC 9328B7C0
Accurately ripped (confidence 18) [D717EB96] (AR v2)
Copy OK

Track 5

Filename D:\Archived Music\EAC Rips\Seether - Poison The Parish [Deluxe Edition] (2017) [FLAC]\05 - Let You Down.wav

Peak level 97.7 %
Extraction speed 1.6 X
Track quality 100.0 %
Test CRC 0620C9CF
Copy CRC 0620C9CF
Accurately ripped (confidence 19) [8FDEB1C6] (AR v2)
Copy OK

Track 6

Filename D:\Archived Music\EAC Rips\Seether - Poison The Parish [Deluxe Edition] (2017) [FLAC]\06 - Against The Wall.wav

Peak level 96.8 %
Extraction speed 1.6 X
Track quality 100.0 %
Test CRC 2D99B77B
Copy CRC 2D99B77B
Accurately ripped (confidence 18) [9D2821B1] (AR v2)
Copy OK

Track 7

Filename D:\Archived Music\EAC Rips\Seether - Poison The Parish [Deluxe Edition] (2017) [FLAC]\07 - Let Me Heal.wav

Peak level 97.2 %
Extraction speed 1.7 X
Track quality 100.0 %
Test CRC DFB82C57
Copy CRC DFB82C57
Accurately ripped (confidence 18) [8FF41955] (AR v2)
Copy OK

Track 8

Filename D:\Archived Music\EAC Rips\Seether - Poison The Parish [Deluxe Edition] (2017) [FLAC]\08 - Saviours.wav

Peak level 97.7 %
Extraction speed 1.7 X
Track quality 100.0 %
Test CRC 3ED1647D
Copy CRC 3ED1647D
Accurately ripped (confidence 18) [2689A819] (AR v2)
Copy OK

Track 9

Filename D:\Archived Music\EAC Rips\Seether - Poison The Parish [Deluxe Edition] (2017) [FLAC]\09 - Nothing Left.wav

Peak level 97.7 %
Extraction speed 1.8 X
Track quality 100.0 %
Test CRC AB0C947E
Copy CRC AB0C947E
Accurately ripped (confidence 18) [1B3BF4BD] (AR v2)
Copy OK

Track 10

Filename D:\Archived Music\EAC Rips\Seether - Poison The Parish [Deluxe Edition] (2017) [FLAC]\10 - Count Me Out.wav

Peak level 97.2 %
Extraction speed 1.9 X
Track quality 100.0 %
Test CRC F8FCB3E8
Copy CRC F8FCB3E8
Accurately ripped (confidence 18) [233812CA] (AR v2)
Copy OK

Track 11

Filename D:\Archived Music\EAC Rips\Seether - Poison The Parish [Deluxe Edition] (2017) [FLAC]\11 - Emotionless.wav

Peak level 97.7 %
Extraction speed 2.0 X
Track quality 100.0 %
Test CRC 68D200BF
Copy CRC 68D200BF
Accurately ripped (confidence 18) [3CBB6E7D] (AR v2)
Copy OK

Track 12

Filename D:\Archived Music\EAC Rips\Seether - Poison The Parish [Deluxe Edition] (2017) [FLAC]\12 - Sell My Soul.wav

Peak level 96.8 %
Extraction speed 2.1 X
Track quality 100.0 %
Test CRC 6AF071D4
Copy CRC 6AF071D4
Accurately ripped (confidence 18) [C2E1F124] (AR v2)
Copy OK

Track 13

Filename D:\Archived Music\EAC Rips\Seether - Poison The Parish [Deluxe Edition] (2017) [FLAC]\13 - Feels Like Dying.wav

Peak level 97.2 %
Extraction speed 2.1 X
Track quality 100.0 %
Test CRC A19872F2
Copy CRC A19872F2
Accurately ripped (confidence 18) [35183DC6] (AR v2)
Copy OK

Track 14

Filename D:\Archived Music\EAC Rips\Seether - Poison The Parish [Deluxe Edition] (2017) [FLAC]\14 - Misunderstood.wav

Peak level 97.3 %
Extraction speed 2.1 X
Track quality 100.0 %
Test CRC A16B70FA
Copy CRC A16B70FA
Accurately ripped (confidence 18) [1885AB91] (AR v2)
Copy OK

Track 15

Filename D:\Archived Music\EAC Rips\Seether - Poison The Parish [Deluxe Edition] (2017) [FLAC]\15 - Take A Minute.wav

Peak level 97.7 %
Extraction speed 2.2 X
Track quality 100.0 %
Test CRC 5A2790CF
Copy CRC 5A2790CF
Accurately ripped (confidence 18) [416D067B] (AR v2)
Copy OK


All tracks accurately ripped

No errors occurred

End of status report

–– CUETools DB Plugin V2.1.6

[CTDB TOCID: svB00QfqIKHvydt.9oLG3ULxZgg-] found
Submit result: svB00QfqIKHvydt.9oLG3ULxZgg- has been confirmed
Track | CTDB Status
1 | (74/75) Accurately ripped
2 | (74/75) Accurately ripped
3 | (74/75) Accurately ripped
4 | (74/75) Accurately ripped
5 | (74/75) Accurately ripped
6 | (74/75) Accurately ripped
7 | (74/75) Accurately ripped
8 | (74/75) Accurately ripped
9 | (74/75) Accurately ripped
10 | (74/75) Accurately ripped
11 | (73/75) Accurately ripped
12 | (73/75) Accurately ripped
13 | (73/75) Accurately ripped
14 | (74/75) Accurately ripped
15 | (74/75) Accurately ripped


==== Log checksum A12EB4A4A3B18A51ADF96B6EDC5262B2C9C0B206A6A2B77DAE36054369920983 ====

Thanks to the Original ripper Flower86 !