Subcategories

Serge Chaloff - Blue Serge (1956/1992)

Posted By: Domestos
Serge Chaloff - Blue Serge (1956/1992)

Serge Chaloff - Blue Serge (1956/1992)
EAC Rip | FLAC (tracks+.cue, log) ~ 132.38 Mb | 42:08 | Scans included
Hard Bop | Country: USA | Label: Capitol Records - TOCJ-5431

Baritonist Serge Chaloff's final recording as a leader is his best. Blue Serge is a quartet outing with pianist Sonny Clark, bassist Leroy Vinnegar and drummer Philly Joe Jones. Chaloff had already contracted the spinal paralysis that would kill him a year later but there is no hint of any weakness on this date. Whether it be "The Goof and I," "I've Got the World on a String" or a beautiful rendition of "Stairway to the Stars," this recording features Serge Chaloff at his best. ~ AllMusic Review by Scott Yanow

Track List:
01 "A Handful of Stars" (Lawrence, Shapiro) - 5:38
02 "The Goof and I" (Cohn) - 4:49
03 "Thanks for the Memory" (Rainger, Robin) - 3:51
04 "All the Things You Are" (Hammerstein, Kern) - 5:31
05 "I've Got the World on a String" (Arlen, Koehler) - 6:47
06 "Susie's Blues" (Chaloff) - 5:13
07 "Stairway to the Stars" (Malneck, Parish, Signorelli) - 4:54
Bonus track:
08 "How About You?" (Freed, Lane) - 5:25

Serge Chaloff – baritone saxophone
Sonny Clark – piano
Leroy Vinnegar – bass
Philly Joe Jones – drums

Serge Chaloff - Blue Serge (1956/1992)

Exact Audio Copy V1.3 from 2. September 2016

Отчёт EAC об извлечении, выполненном 25. апреля 2018, 16:51

Serge Chaloff / Blue Serge

Дисковод: HL-DT-STDVDRAM GUA0N Adapter: 1 ID: 0

Режим чтения : Достоверность
Использование точного потока : Да
Отключение кэша аудио : Да
Использование указателей C2 : Нет

Коррекция смещения при чтении : 6
Способность читать области Lead-in и Lead-out : Нет
Заполнение пропущенных сэмплов тишиной : Да
Удаление блоков с тишиной в начале и конце : Нет
При вычислениях CRC использовались нулевые сэмплы : Да
Интерфейс : Встроенный Win32-интерфейс для Win NT/2000
Обработка зазоров : Добавлено к предыдущему треку

Выходной формат : Пользовательский кодировщик
Выбранный битрейт : 128 kBit/s
Качество : Высокий
Добавление ID3-тега : Нет
Утилита сжатия : C:\Program Files (x86)\Exact Audio Copy\Flac\flac.exe
Дополнительные параметры : -V -8 -T "Date=%year%" -T "Genre=%genre%" %source%

TOC извлечённого CD

Трек | Старт | Длительность | Начальный сектор | Конечный сектор
––––––––––––––––––––––––––––––––––-
1 | 0:00.00 | 5:38.25 | 0 | 25374
2 | 5:38.25 | 4:49.37 | 25375 | 47086
3 | 10:27.62 | 3:50.48 | 47087 | 64384
4 | 14:18.35 | 5:30.55 | 64385 | 89189
5 | 19:49.15 | 6:46.47 | 89190 | 119686
6 | 26:35.62 | 5:12.38 | 119687 | 143124
7 | 31:48.25 | 4:54.07 | 143125 | 165181
8 | 36:42.32 | 5:25.18 | 165182 | 189574

Трек 1

Имя файла C:\01 A Handful of Stars.wav

Длина предзазора 0:00:02.00

Пиковый уровень 94.3 %
Скорость извлечения 1.1 X
Качество трека 99.9 %
CRC теста B440F726
CRC копии B440F726
Точное извлечение (достоверность 3) [F6833225] (AR v2)
Копирование… OK

Трек 2

Имя файла C:\02 The Goof and I.wav

Длина предзазора 0:00:02.38

Пиковый уровень 94.3 %
Скорость извлечения 1.2 X
Качество трека 99.9 %
CRC теста F244D6F5
CRC копии F244D6F5
Точное извлечение (достоверность 3) [955F0C5B] (AR v2)
Копирование… OK

Трек 3

Имя файла C:\03 Thanks for the Memory.wav

Длина предзазора 0:00:02.37

Пиковый уровень 88.9 %
Скорость извлечения 1.4 X
Качество трека 100.0 %
CRC теста 3E1ABC74
CRC копии 3E1ABC74
Точное извлечение (достоверность 3) [D2D943CF] (AR v2)
Копирование… OK

Трек 4

Имя файла C:\04 All the Things You Are.wav

Длина предзазора 0:00:02.38

Пиковый уровень 94.3 %
Скорость извлечения 1.6 X
Качество трека 100.0 %
CRC теста 96CB4EEF
CRC копии 96CB4EEF
Точное извлечение (достоверность 3) [2115B444] (AR v2)
Копирование… OK

Трек 5

Имя файла C:\05 I've Got the World on a String.wav

Длина предзазора 0:00:02.38

Пиковый уровень 96.1 %
Скорость извлечения 1.8 X
Качество трека 100.0 %
CRC теста 9E6FC17D
CRC копии 9E6FC17D
Точное извлечение (достоверность 3) [71FF5FFD] (AR v2)
Копирование… OK

Трек 6

Имя файла C:\06 Susie's Blues.wav

Длина предзазора 0:00:02.37

Пиковый уровень 94.3 %
Скорость извлечения 1.9 X
Качество трека 100.0 %
CRC теста 5574E6F6
CRC копии 5574E6F6
Точное извлечение (достоверность 3) [87035BBB] (AR v2)
Копирование… OK

Трек 7

Имя файла C:\07 Stairway to the Stars.wav

Длина предзазора 0:00:02.38

Пиковый уровень 99.9 %
Скорость извлечения 2.0 X
Качество трека 100.0 %
CRC теста 70D0FD8E
CRC копии 70D0FD8E
Точное извлечение (достоверность 3) [C3A79D7A] (AR v2)
Копирование… OK

Трек 8

Имя файла C:\08 How About You.wav

Длина предзазора 0:00:02.37

Пиковый уровень 94.3 %
Скорость извлечения 2.1 X
Качество трека 100.0 %
CRC теста 76A0728C
CRC копии 76A0728C
Точное извлечение (достоверность 3) [0BEBA2D8] (AR v2)
Копирование… OK

Все треки извлечены точно

Ошибок не произошло

Конец отчёта

==== Контрольная сумма отчёта 0B02C4888FD65D8E6EA78A550258E1A0ECC92C1592FE7855E42E9F614C1C6D63 ====

All thanks go to the Dionysius.

More Music in My Blog
Follow My RSS Channel