Subcategories

Joan Manuel Serrat - Antologia Desordenada (2014) {4CD Box Set, Sony Music 88875015472}

Posted By: ruskaval
Joan Manuel Serrat - Antologia Desordenada (2014) {4CD Box Set, Sony Music 88875015472}

Joan Manuel Serrat - Antologia Desordenada (2014) {4CD Box Set, Sony Music 88875015472}
EAC rip (secure mode) | FLAC (tracks)+CUE+LOG -> 1.30 Gb | MP3 @320 -> 485 Mb
Full Artwork @ 300 dpi (jpg) -> 59 Mb | 5% repair rar
© 2014 Taller 83 / Sony Music | 8887501547
Latin Pop / Spanish Folk / Western European Traditions / Vocal Music

This special product celebrates Serrats 50 years as a recording artist. He is considered one of the most prolific, poet singer/songwriters in Latin music. His songwriting has always remained very socially conscience in nature. February 18, 2015 is the 50th anniversary of his first performance.
Joan Manuel Serrat - Antologia Desordenada (2014) {4CD Box Set, Sony Music 88875015472}

All 50 songs (tracks) are written by Serrat and handpicked by Serrat himself from his 500 plus repertoire of self-penned songs. Serrat will be on tour worldwide throughout 2015 and performing over 100 concerts. The special package will feature 4 CD (50 tracks) and 104 pages of liner notes written by Serrat and providing notes and stories for each of the tracks/songs.

Features Duets with:
o Alejandro Sanz
o Pablo Milanes
o Mercedes Sosa
o Joaquin Sabina
o Maria Bethania
o Estopa
o Calle 13
o Miguel Rios
o Silvio Rodriguez
o Ruben Blades
o Tania Libertad
o Plus many more….
Joan Manuel Serrat - Antologia Desordenada (2014) {4CD Box Set, Sony Music 88875015472}


Track Listing

CD1

01 - Canco De Bressol
02 - Las Malas Companias
03 - Te Guste O No
04 - Res No Es Mesqui
05 - Senyora
06 - Aquellas Pequenyas Cosas
07 - Canco De Matinada
08 - Bendita Musica
09 - Me Gusta Todo De Ti
10 - El Meu Carrer
11 - Princesa
12 - Romance De Curro El Palmo
13 - Fiesta

Joan Manuel Serrat - Antologia Desordenada (2014) {4CD Box Set, Sony Music 88875015472}


CD2
01 - Mediterraneo (con Lolita Flores)
02 - Plany Al Mar (con Silvia Perez Cruz)
03 - Hijo De La Luz Y De La Sombra
04 - Sinceramente Teu (con Maria Bethania)
05 - Ninyo Silvestre
06 - A Ese Pajaro Dorado (con Dulce Pontes)
07 - Me'n Vaig A Peu (con Estopa)
08 - De Vez En Cuando La Vida
09 - Penelope (con Gino Paoli)
10 - Temps Era Temps (con Quico Pi De La Serra)
11 - Esos Locos Bajitos
12 - La Saeta (con Carmen Linares)
13 - Barcelona I Jo

Joan Manuel Serrat - Antologia Desordenada (2014) {4CD Box Set, Sony Music 88875015472}


CD3
01 - Cantares (con Miguel Rios)
02 - Ja Tens L'amor (con Ana Belen)
03 - El Sur Tambien Existe
04 - Pendiente De Ti (con Soledad Gimenez)
05 - La Tieta
06 - Algo Personal (con Calle13)
07 - Y El Amor (con Luis Eduardo Aute)
08 - Pueblo Blanco
09 - Seria Fantastic
10 - Disculpe El Senyor (con Ricard Miralles)
11 - El Carrusel Del Furo
12 - Perque La Gent S'avorreix Tant (con Andreu Buenafuente)

Joan Manuel Serrat - Antologia Desordenada (2014) {4CD Box Set, Sony Music 88875015472}


CD4
01 - Lucia (con Silvio Rodriguez)
02 - No Hago Otra Cosa Que Pensar En Ti (con Paquita La Del Barrio)
03 - Cremant Nuvols
04 - Para La Libertad (con Ruben Blades)
05 - Es Caprichoso El Azar (con Noa)
06 - Benito
07 - Helena
08 - Sin Piedad (con Mina)
09 - Hoy Por Ti, Manyana Por Mi (con Tania Libertad)
10 - Pare
11 - Hoy Puede Ser Un Gran Dia (con Ana Belen,Miguel Rios y Victor Manuel)
12 - Paraules D'amor (con Pablo Alboran)

Joan Manuel Serrat - Antologia Desordenada (2014) {4CD Box Set, Sony Music 88875015472}


Exact Audio Copy V1.0 beta 3 from 29. August 2011

EAC extraction logfile from 6. May 2015, 9:43

Joan Manuel Serrat / Antologia Desordenada CD1

Used drive : ASUS SDRW-08D2S-U Adapter: 1 ID: 0

Read mode : Secure
Utilize accurate stream : Yes
Defeat audio cache : Yes
Make use of C2 pointers : No

Read offset correction : 6
Overread into Lead-In and Lead-Out : No
Fill up missing offset samples with silence : Yes
Delete leading and trailing silent blocks : No
Null samples used in CRC calculations : Yes
Used interface : Native Win32 interface for Win NT & 2000
Gap handling : Appended to previous track

Used output format : User Defined Encoder
Selected bitrate : 128 kBit/s
Quality : High
Add ID3 tag : No
Command line compressor : C:\Program Files (x86)\Exact Audio Copy\Flac\flac.exe
Additional command line options : -8 -V -T "ARTIST=%artist%" -T "TITLE=%title%" -T "ALBUM=%albumtitle%" -T "DATE=%year%" -T "TRACKNUMBER=%tracknr%" -T "TOTALTRACKS=%numtracks%" -T "GENRE=%genre%" -T "ALBUMARTIST=%albumartist%" -T "ALBUM ARTIST=%albumartist%" -T "COMMENT=EAC Secure Mode, Test & Copy, AccurateRip, FLAC -8" %source%


TOC of the extracted CD

Track | Start | Length | Start sector | End sector
––––––––––––––––––––––––––––-
1 | 0:00.00 | 4:36.26 | 0 | 20725
2 | 4:36.26 | 3:11.29 | 20726 | 35079
3 | 7:47.55 | 2:58.51 | 35080 | 48480
4 | 10:46.31 | 3:15.12 | 48481 | 63117
5 | 14:01.43 | 2:22.46 | 63118 | 73813
6 | 16:24.14 | 2:38.74 | 73814 | 85737
7 | 19:03.13 | 3:23.67 | 85738 | 101029
8 | 22:27.05 | 4:05.16 | 101030 | 119420
9 | 26:32.21 | 4:57.70 | 119421 | 141765
10 | 31:30.16 | 3:51.21 | 141766 | 159111
11 | 35:21.37 | 5:07.31 | 159112 | 182167
12 | 40:28.68 | 6:41.07 | 182168 | 212249
13 | 47:10.00 | 3:09.71 | 212250 | 226495


Track 1

Filename D:\Subir\01 - Canco De Bressol.wav

Pre-gap length 0:00:02.00

Peak level 89.0 %
Extraction speed 2.5 X
Track quality 100.0 %
Test CRC 2DA99DED
Copy CRC 2DA99DED
Accurately ripped (confidence 3) [43CA2575] (AR v2)
Copy OK

Track 2

Filename D:\Subir\02 - Las Malas Companias.wav

Peak level 95.4 %
Extraction speed 2.8 X
Track quality 100.0 %
Test CRC 2BF245FA
Copy CRC 2BF245FA
Accurately ripped (confidence 3) [D7F25243] (AR v2)
Copy OK

Track 3

Filename D:\Subir\03 - Te Guste O No.wav

Peak level 96.3 %
Extraction speed 2.9 X
Track quality 100.0 %
Test CRC 30BE29E4
Copy CRC 30BE29E4
Accurately ripped (confidence 3) [4D62B238] (AR v2)
Copy OK

Track 4

Filename D:\Subir\04 - Res No Es Mesqui.wav

Peak level 97.1 %
Extraction speed 3.1 X
Track quality 100.0 %
Test CRC 8A8B1C52
Copy CRC 8A8B1C52
Accurately ripped (confidence 3) [48327EBA] (AR v2)
Copy OK

Track 5

Filename D:\Subir\05 - Senyora.wav

Peak level 98.7 %
Extraction speed 3.1 X
Track quality 100.0 %
Test CRC 3E02A955
Copy CRC 3E02A955
Accurately ripped (confidence 3) [A187DAC1] (AR v2)
Copy OK

Track 6

Filename D:\Subir\06 - Aquellas Pequenyas Cosas.wav

Peak level 95.0 %
Extraction speed 3.3 X
Track quality 100.0 %
Test CRC 1D2A8899
Copy CRC 1D2A8899
Accurately ripped (confidence 3) [B4153EF7] (AR v2)
Copy OK

Track 7

Filename D:\Subir\07 - Canco De Matinada.wav

Peak level 95.2 %
Extraction speed 3.6 X
Track quality 100.0 %
Test CRC C803B596
Copy CRC C803B596
Accurately ripped (confidence 3) [014B541D] (AR v2)
Copy OK

Track 8

Filename D:\Subir\08 - Bendita Musica.wav

Peak level 98.2 %
Extraction speed 3.8 X
Track quality 100.0 %
Test CRC 33F3AA93
Copy CRC 33F3AA93
Accurately ripped (confidence 3) [DAA0CA17] (AR v2)
Copy OK

Track 9

Filename D:\Subir\09 - Me Gusta Todo De Ti.wav

Peak level 97.6 %
Extraction speed 4.2 X
Track quality 100.0 %
Test CRC FD0C51BD
Copy CRC FD0C51BD
Accurately ripped (confidence 3) [B9C08367] (AR v2)
Copy OK

Track 10

Filename D:\Subir\10 - El Meu Carrer.wav

Peak level 95.8 %
Extraction speed 4.2 X
Track quality 100.0 %
Test CRC 82C206B9
Copy CRC 82C206B9
Accurately ripped (confidence 3) [240BB1D2] (AR v2)
Copy OK

Track 11

Filename D:\Subir\11 - Princesa.wav

Peak level 98.3 %
Extraction speed 3.8 X
Track quality 99.9 %
Test CRC A5ED9664
Copy CRC A5ED9664
Accurately ripped (confidence 3) [906B745A] (AR v2)
Copy OK

Track 12

Filename D:\Subir\12 - Romance De Curro El Palmo.wav

Peak level 98.9 %
Extraction speed 4.8 X
Track quality 100.0 %
Test CRC D305EC1E
Copy CRC D305EC1E
Accurately ripped (confidence 3) [E308C66D] (AR v2)
Copy OK

Track 13

Filename D:\Subir\13 - Fiesta.wav

Peak level 97.0 %
Extraction speed 4.5 X
Track quality 100.0 %
Test CRC A659C438
Copy CRC A659C438
Accurately ripped (confidence 3) [191B7115] (AR v2)
Copy OK


All tracks accurately ripped

No errors occurred

End of status report

–– CUETools DB Plugin V2.1.3

[CTDB TOCID: CIK6CasXb7rksHmOXnYhizwOVCg-] found, Submit result: CIK6CasXb7rksHmOXnYhizwOVCg- has been confirmed
[8bbfd8bc] (5/5) Accurately ripped


==== Log checksum 16819DDF4D86F38445E9AC236F8BA13C84DB49B778FE5CCB631531BAC1984EA5 ====
Exact Audio Copy V1.0 beta 3 from 29. August 2011

EAC extraction logfile from 6. May 2015, 11:11

Joan Manuel Serrat / Antologia Desordenada CD2

Used drive : ASUS SDRW-08D2S-U Adapter: 1 ID: 0

Read mode : Secure
Utilize accurate stream : Yes
Defeat audio cache : Yes
Make use of C2 pointers : No

Read offset correction : 6
Overread into Lead-In and Lead-Out : No
Fill up missing offset samples with silence : Yes
Delete leading and trailing silent blocks : No
Null samples used in CRC calculations : Yes
Used interface : Native Win32 interface for Win NT & 2000
Gap handling : Appended to previous track

Used output format : User Defined Encoder
Selected bitrate : 128 kBit/s
Quality : High
Add ID3 tag : No
Command line compressor : C:\Program Files (x86)\Exact Audio Copy\Flac\flac.exe
Additional command line options : -8 -V -T "ARTIST=%artist%" -T "TITLE=%title%" -T "ALBUM=%albumtitle%" -T "DATE=%year%" -T "TRACKNUMBER=%tracknr%" -T "TOTALTRACKS=%numtracks%" -T "GENRE=%genre%" -T "ALBUMARTIST=%albumartist%" -T "ALBUM ARTIST=%albumartist%" -T "COMMENT=EAC Secure Mode, Test & Copy, AccurateRip, FLAC -8" %source%


TOC of the extracted CD

Track | Start | Length | Start sector | End sector
––––––––––––––––––––––––––––-
1 | 0:00.00 | 4:18.29 | 0 | 19378
2 | 4:18.29 | 3:44.05 | 19379 | 36183
3 | 8:02.34 | 4:05.35 | 36184 | 54593
4 | 12:07.69 | 4:15.17 | 54594 | 73735
5 | 16:23.11 | 5:10.05 | 73736 | 96990
6 | 21:33.16 | 3:17.14 | 96991 | 111779
7 | 24:50.30 | 3:21.38 | 111780 | 126892
8 | 28:11.68 | 3:41.49 | 126893 | 143516
9 | 31:53.42 | 4:18.37 | 143517 | 162903
10 | 36:12.04 | 3:36.15 | 162904 | 179118
11 | 39:48.19 | 4:10.48 | 179119 | 197916
12 | 43:58.67 | 2:17.52 | 197917 | 208243
13 | 46:16.44 | 4:10.08 | 208244 | 227001


Track 1

Filename D:\Subir\01 - Mediterraneo (con Lolita Flores).wav

Pre-gap length 0:00:02.00

Peak level 98.2 %
Extraction speed 1.0 X
Track quality 100.0 %
Test CRC 0F883202
Copy CRC 0F883202
Accurately ripped (confidence 2) [451802AE] (AR v2)
Copy OK

Track 2

Filename D:\Subir\02 - Plany Al Mar (con Silvia Perez Cruz).wav

Peak level 92.6 %
Extraction speed 0.9 X
Track quality 99.9 %
Test CRC 3D408EBA
Copy CRC 3D408EBA
Accurately ripped (confidence 2) [A15D98F5] (AR v2)
Copy OK

Track 3

Filename D:\Subir\03 - Hijo De La Luz Y De La Sombra.wav

Peak level 97.8 %
Extraction speed 1.2 X
Track quality 100.0 %
Test CRC BDDC01FA
Copy CRC BDDC01FA
Accurately ripped (confidence 2) [483585F7] (AR v2)
Copy OK

Track 4

Filename D:\Subir\04 - Sinceramente Teu (con Maria Bethania).wav

Peak level 87.9 %
Extraction speed 1.3 X
Track quality 100.0 %
Test CRC 15AEEE9D
Copy CRC 15AEEE9D
Accurately ripped (confidence 2) [4B750C15] (AR v2)
Copy OK

Track 5

Filename D:\Subir\05 - Ninyo Silvestre.wav

Peak level 97.1 %
Extraction speed 1.2 X
Track quality 99.9 %
Test CRC B67D03CF
Copy CRC B67D03CF
Accurately ripped (confidence 2) [E252B707] (AR v2)
Copy OK

Track 6

Filename D:\Subir\06 - A Ese Pajaro Dorado (con Dulce Pontes).wav

Peak level 96.1 %
Extraction speed 1.1 X
Track quality 99.9 %
Test CRC 7ED258CA
Copy CRC 7ED258CA
Accurately ripped (confidence 2) [F1E95658] (AR v2)
Copy OK

Track 7

Filename D:\Subir\07 - Me'n Vaig A Peu (con Estopa).wav

Peak level 97.9 %
Extraction speed 1.2 X
Track quality 99.9 %
Test CRC E6DCEE24
Copy CRC E6DCEE24
Accurately ripped (confidence 2) [C8BDE79E] (AR v2)
Copy OK

Track 8

Filename D:\Subir\08 - De Vez En Cuando La Vida.wav

Peak level 93.0 %
Extraction speed 1.5 X
Track quality 100.0 %
Test CRC C22E9BD1
Copy CRC C22E9BD1
Accurately ripped (confidence 2) [C872083E] (AR v2)
Copy OK

Track 9

Filename D:\Subir\09 - Penelope (con Gino Paoli).wav

Peak level 97.6 %
Extraction speed 1.6 X
Track quality 100.0 %
Test CRC 187244CC
Copy CRC 187244CC
Accurately ripped (confidence 2) [2E1339AD] (AR v2)
Copy OK

Track 10

Filename D:\Subir\10 - Temps Era Temps (con Quico Pi De La Serra).wav

Peak level 94.7 %
Extraction speed 1.6 X
Track quality 100.0 %
Test CRC 4F884CCE
Copy CRC 4F884CCE
Accurately ripped (confidence 2) [E8E174FF] (AR v2)
Copy OK

Track 11

Filename D:\Subir\11 - Esos Locos Bajitos.wav

Peak level 86.6 %
Extraction speed 1.4 X
Track quality 99.9 %
Test CRC 0153AF9E
Copy CRC 0153AF9E
Accurately ripped (confidence 2) [6AD78C50] (AR v2)
Copy OK

Track 12

Filename D:\Subir\12 - La Saeta (con Carmen Linares).wav

Peak level 92.7 %
Extraction speed 1.5 X
Track quality 100.0 %
Test CRC 0E6E4BBC
Copy CRC 0E6E4BBC
Accurately ripped (confidence 2) [DD1E6EF9] (AR v2)
Copy OK

Track 13

Filename D:\Subir\13 - Barcelona I Jo.wav

Peak level 96.6 %
Extraction speed 1.7 X
Track quality 100.0 %
Test CRC 6A812565
Copy CRC 6A812565
Accurately ripped (confidence 2) [50DFF65B] (AR v2)
Copy OK


All tracks accurately ripped

No errors occurred

End of status report

–– CUETools DB Plugin V2.1.3

[CTDB TOCID: UwMklJEwRlhitnsY0FMtryC7yKg-] found, Submit result: UwMklJEwRlhitnsY0FMtryC7yKg- has been confirmed
[26eb8926] (5/5) Accurately ripped


==== Log checksum D49C441DD46CFA93C8F64EDED5EDFFF3D86581D2665C9C77F249B99AB058C0DE ====
Exact Audio Copy V1.0 beta 3 from 29. August 2011

EAC extraction logfile from 6. May 2015, 15:34

Joan Manuel Serrat / Antologia Desordenada CD3

Used drive : ASUS SDRW-08D2S-U Adapter: 1 ID: 0

Read mode : Secure
Utilize accurate stream : Yes
Defeat audio cache : Yes
Make use of C2 pointers : No

Read offset correction : 6
Overread into Lead-In and Lead-Out : No
Fill up missing offset samples with silence : Yes
Delete leading and trailing silent blocks : No
Null samples used in CRC calculations : Yes
Used interface : Native Win32 interface for Win NT & 2000
Gap handling : Appended to previous track

Used output format : User Defined Encoder
Selected bitrate : 128 kBit/s
Quality : High
Add ID3 tag : No
Command line compressor : C:\Program Files (x86)\Exact Audio Copy\Flac\flac.exe
Additional command line options : -8 -V -T "ARTIST=%artist%" -T "TITLE=%title%" -T "ALBUM=%albumtitle%" -T "DATE=%year%" -T "TRACKNUMBER=%tracknr%" -T "TOTALTRACKS=%numtracks%" -T "GENRE=%genre%" -T "ALBUMARTIST=%albumartist%" -T "ALBUM ARTIST=%albumartist%" -T "COMMENT=EAC Secure Mode, Test & Copy, AccurateRip, FLAC -8" %source%


TOC of the extracted CD

Track | Start | Length | Start sector | End sector
––––––––––––––––––––––––––––-
1 | 0:00.00 | 3:36.48 | 0 | 16247
2 | 3:36.48 | 2:29.64 | 16248 | 27486
3 | 6:06.37 | 6:14.53 | 27487 | 55589
4 | 12:21.15 | 4:43.35 | 55590 | 76849
5 | 17:04.50 | 5:58.71 | 76850 | 103770
6 | 23:03.46 | 5:20.65 | 103771 | 127835
7 | 28:24.36 | 2:41.28 | 127836 | 139938
8 | 31:05.64 | 5:05.19 | 139939 | 162832
9 | 36:11.08 | 3:53.68 | 162833 | 180375
10 | 40:05.01 | 3:44.04 | 180376 | 197179
11 | 43:49.05 | 4:05.53 | 197180 | 215607
12 | 47:54.58 | 2:35.52 | 215608 | 227284


Track 1

Filename D:\Subir\01 - Cantares (con Miguel Rios).wav

Pre-gap length 0:00:02.00

Peak level 99.9 %
Extraction speed 1.0 X
Track quality 100.0 %
Test CRC 52307D5A
Copy CRC 52307D5A
Accurately ripped (confidence 2) [E1C8BA16] (AR v2)
Copy OK

Track 2

Filename D:\Subir\02 - Ja Tens L'amor (con Ana Belen).wav

Peak level 91.9 %
Extraction speed 1.0 X
Track quality 100.0 %
Test CRC 3E0ADD36
Copy CRC 3E0ADD36
Accurately ripped (confidence 2) [C86F24C1] (AR v2)
Copy OK

Track 3

Filename D:\Subir\03 - El Sur Tambien Existe.wav

Peak level 94.0 %
Extraction speed 1.2 X
Track quality 100.0 %
Test CRC 9BAB2BB4
Copy CRC 9BAB2BB4
Accurately ripped (confidence 2) [205783C3] (AR v2)
Copy OK

Track 4

Filename D:\Subir\04 - Pendiente De Ti (con Soledad Gimenez).wav

Peak level 98.2 %
Extraction speed 1.3 X
Track quality 100.0 %
Test CRC 29CEADC7
Copy CRC 29CEADC7
Accurately ripped (confidence 2) [B873303B] (AR v2)
Copy OK

Track 5

Filename D:\Subir\05 - La Tieta.wav

Peak level 97.3 %
Extraction speed 1.4 X
Track quality 100.0 %
Test CRC 27D3C2AE
Copy CRC 27D3C2AE
Accurately ripped (confidence 2) [1A46AED3] (AR v2)
Copy OK

Track 6

Filename D:\Subir\06 - Algo Personal (con Calle13).wav

Peak level 98.2 %
Extraction speed 1.5 X
Track quality 100.0 %
Test CRC 8E920D03
Copy CRC 8E920D03
Accurately ripped (confidence 2) [0B2E74BB] (AR v2)
Copy OK

Track 7

Filename D:\Subir\07 - Y El Amor (con Luis Eduardo Aute).wav

Peak level 97.0 %
Extraction speed 1.3 X
Track quality 100.0 %
Test CRC 35429E7F
Copy CRC 35429E7F
Accurately ripped (confidence 2) [9A94758B] (AR v2)
Copy OK

Track 8

Filename D:\Subir\08 - Pueblo Blanco.wav

Peak level 97.1 %
Extraction speed 1.6 X
Track quality 100.0 %
Test CRC 0D28DAA5
Copy CRC 0D28DAA5
Accurately ripped (confidence 2) [486A6DA0] (AR v2)
Copy OK

Track 9

Filename D:\Subir\09 - Seria Fantastic.wav

Peak level 97.6 %
Extraction speed 1.6 X
Track quality 100.0 %
Test CRC D09476EB
Copy CRC D09476EB
Accurately ripped (confidence 2) [61ADD5AA] (AR v2)
Copy OK

Track 10

Filename D:\Subir\10 - Disculpe El Senyor (con Ricard Miralles).wav

Peak level 92.0 %
Extraction speed 1.6 X
Track quality 100.0 %
Test CRC FFA45345
Copy CRC FFA45345
Accurately ripped (confidence 2) [5231B1B2] (AR v2)
Copy OK

Track 11

Filename D:\Subir\11 - El Carrusel Del Furo.wav

Peak level 98.0 %
Extraction speed 1.7 X
Track quality 100.0 %
Test CRC EC52C0E9
Copy CRC EC52C0E9
Accurately ripped (confidence 2) [11D55C4A] (AR v2)
Copy OK

Track 12

Filename D:\Subir\12 - Perque La Gent S'avorreix Tant (con Andreu Buenafuente).wav

Peak level 96.8 %
Extraction speed 1.3 X
Track quality 99.9 %
Test CRC E98E5E37
Copy CRC E98E5E37
Accurately ripped (confidence 2) [282585BE] (AR v2)
Copy OK


All tracks accurately ripped

No errors occurred

End of status report

–– CUETools DB Plugin V2.1.3

[CTDB TOCID: 3qazecb7Zol0L59Yw1BN67LCZEE-] found, Submit result: already submitted
[aff400e3] (6/6) Accurately ripped


==== Log checksum 0C533935F24D79E5CCAB045D3FE6F972CE7B4741C6EEA13EEF3BE9BB0F1E03A6 ====
Exact Audio Copy V1.0 beta 3 from 29. August 2011

EAC extraction logfile from 6. May 2015, 16:53

Joan Manuel Serrat / Antologia Desordenada CD4

Used drive : ASUS SDRW-08D2S-U Adapter: 1 ID: 0

Read mode : Secure
Utilize accurate stream : Yes
Defeat audio cache : Yes
Make use of C2 pointers : No

Read offset correction : 6
Overread into Lead-In and Lead-Out : No
Fill up missing offset samples with silence : Yes
Delete leading and trailing silent blocks : No
Null samples used in CRC calculations : Yes
Used interface : Native Win32 interface for Win NT & 2000
Gap handling : Appended to previous track

Used output format : User Defined Encoder
Selected bitrate : 128 kBit/s
Quality : High
Add ID3 tag : No
Command line compressor : C:\Program Files (x86)\Exact Audio Copy\Flac\flac.exe
Additional command line options : -8 -V -T "ARTIST=%artist%" -T "TITLE=%title%" -T "ALBUM=%albumtitle%" -T "DATE=%year%" -T "TRACKNUMBER=%tracknr%" -T "TOTALTRACKS=%numtracks%" -T "GENRE=%genre%" -T "ALBUMARTIST=%albumartist%" -T "ALBUM ARTIST=%albumartist%" -T "COMMENT=EAC Secure Mode, Test & Copy, AccurateRip, FLAC -8" %source%


TOC of the extracted CD

Track | Start | Length | Start sector | End sector
––––––––––––––––––––––––––––-
1 | 0:00.00 | 3:12.63 | 0 | 14462
2 | 3:12.63 | 3:24.50 | 14463 | 29812
3 | 6:37.38 | 4:34.07 | 29813 | 50369
4 | 11:11.45 | 3:08.36 | 50370 | 64505
5 | 14:20.06 | 3:33.47 | 64506 | 80527
6 | 17:53.53 | 6:21.19 | 80528 | 109121
7 | 24:14.72 | 4:41.04 | 109122 | 130200
8 | 28:56.01 | 5:10.35 | 130201 | 153485
9 | 34:06.36 | 4:11.27 | 153486 | 172337
10 | 38:17.63 | 4:36.23 | 172338 | 193060
11 | 42:54.11 | 3:45.08 | 193061 | 209943
12 | 46:39.19 | 3:40.14 | 209944 | 226457


Track 1

Filename D:\Subir\01 - Lucia (con Silvio Rodriguez).wav

Pre-gap length 0:00:02.00

Peak level 95.6 %
Extraction speed 0.9 X
Track quality 100.0 %
Test CRC 4509F0B9
Copy CRC 4509F0B9
Accurately ripped (confidence 2) [4220C375] (AR v2)
Copy OK

Track 2

Filename D:\Subir\02 - No Hago Otra Cosa Que Pensar En Ti (con Paquita La Del Barrio).wav

Peak level 96.8 %
Extraction speed 1.0 X
Track quality 100.0 %
Test CRC A8409F15
Copy CRC A8409F15
Accurately ripped (confidence 2) [E48BE000] (AR v2)
Copy OK

Track 3

Filename D:\Subir\03 - Cremant Nuvols.wav

Peak level 98.2 %
Extraction speed 1.2 X
Track quality 100.0 %
Test CRC B1AB603B
Copy CRC B1AB603B
Accurately ripped (confidence 2) [6349F876] (AR v2)
Copy OK

Track 4

Filename D:\Subir\04 - Para La Libertad (con Ruben Blades).wav

Peak level 99.8 %
Extraction speed 1.2 X
Track quality 100.0 %
Test CRC 5964E396
Copy CRC 5964E396
Accurately ripped (confidence 2) [2ECCFE96] (AR v2)
Copy OK

Track 5

Filename D:\Subir\05 - Es Caprichoso El Azar (con Noa).wav

Peak level 97.2 %
Extraction speed 1.2 X
Track quality 100.0 %
Test CRC B91E058F
Copy CRC B91E058F
Accurately ripped (confidence 2) [14940CC3] (AR v2)
Copy OK

Track 6

Filename D:\Subir\06 - Benito.wav

Peak level 97.4 %
Extraction speed 1.4 X
Track quality 100.0 %
Test CRC 0E67F71F
Copy CRC 0E67F71F
Accurately ripped (confidence 2) [8493289B] (AR v2)
Copy OK

Track 7

Filename D:\Subir\07 - Helena.wav

Peak level 99.4 %
Extraction speed 1.5 X
Track quality 100.0 %
Test CRC 4DCF681C
Copy CRC 4DCF681C
Accurately ripped (confidence 2) [F1732871] (AR v2)
Copy OK

Track 8

Filename D:\Subir\08 - Sin Piedad (con Mina).wav

Peak level 96.7 %
Extraction speed 1.6 X
Track quality 100.0 %
Test CRC 12A13784
Copy CRC 12A13784
Accurately ripped (confidence 2) [6918998F] (AR v2)
Copy OK

Track 9

Filename D:\Subir\09 - Hoy Por Ti, Manyana Por Mi (con Tania Libertad).wav

Peak level 98.1 %
Extraction speed 1.6 X
Track quality 100.0 %
Test CRC 5E9C968D
Copy CRC 5E9C968D
Accurately ripped (confidence 2) [EC3001C6] (AR v2)
Copy OK

Track 10

Filename D:\Subir\10 - Pare.wav

Peak level 97.3 %
Extraction speed 1.6 X
Track quality 100.0 %
Test CRC AF5C99E5
Copy CRC AF5C99E5
Accurately ripped (confidence 2) [273E8771] (AR v2)
Copy OK

Track 11

Filename D:\Subir\11 - Hoy Puede Ser Un Gran Dia (con Ana Belen,Miguel Rios y Victor Manuel).wav

Peak level 100.0 %
Extraction speed 1.4 X
Track quality 99.9 %
Test CRC 4FAE8FA8
Copy CRC 4FAE8FA8
Accurately ripped (confidence 2) [0A3B7777] (AR v2)
Copy OK

Track 12

Filename D:\Subir\12 - Paraules D'amor (con Pablo Alboran).wav

Peak level 94.4 %
Extraction speed 1.7 X
Track quality 100.0 %
Test CRC 504A2CF9
Copy CRC 504A2CF9
Accurately ripped (confidence 2) [BEBF6603] (AR v2)
Copy OK


All tracks accurately ripped

No errors occurred

End of status report

–– CUETools DB Plugin V2.1.3

[CTDB TOCID: 3Feu4AcPcSUagWmCUPruxM9UgOY-] found, Submit result: already submitted
[73bc11c1] (6/6) Accurately ripped


==== Log checksum BD466888EE279646D4AED5833CEA88924EFEE74A90D02FB0E4D9AF5590B2081C ====


Joan Manuel Serrat - Antologia Desordenada (2014) {4CD Box Set, Sony Music 88875015472}



===