Subcategories

Shivkumar Sharma & Hariprasad Chaurasia - The Valley Recalls (1995) {2CD+2DVD5 NTSC Sony Music-Navras}

Posted By: ruskaval
Shivkumar Sharma & Hariprasad Chaurasia - The Valley Recalls (1995) {2CD+2DVD5 NTSC Sony Music-Navras}

Shivkumar Sharma & Hariprasad Chaurasia - The Valley Recalls (1995) {2CD+2DVD5 NTSC Sony Music-Navras}
EAC rip (secure mode) | FLAC (tracks)+CUE+LOG -> 729 Mb | MP3 @320 -> 348 Mb
2xDVD5 -> 5.97 Gb | All Regions | NTSC 4:3 | Dolby AC3, 2 ch | ~ 180 min | ISO Images
Full Artwork @ 300 dpi (png) -> 210 Mb | 5% repair rar
© 1995, 2004, 2009 Sony Music / Navras Records | 88697 56085 2 / NRDVD 005/6
World Music / Indian Classical / Raga / Santoor & Flute Jugalbandi / Pakhawaj & Tabla Duet

Pandit Shivkumar Sharma and Pandit Hariprasad Chaurasia reunite some 30 years later for a follow-up to their beautiful and groundbreaking Call of the Valley. Sharma (santoor) and Chaurasia (flute) were highly regarded on their instruments back then, and are now acknowledged as living masters. Although Brij Bhushan Kabra has been replaced on Indian acoustic slide guitar by Jayanti Shah, the overall mood is just as lovely and contemplative, even though the role of the guitar has been diminished. The Valley Recalls is beautiful, gentle work, and a worthy successor to Call of the Valley.
Shivkumar Sharma & Hariprasad Chaurasia - The Valley Recalls (1995) {2CD+2DVD5 NTSC Sony Music-Navras}

Connecting the past and the present is one of the goals of Indian music but in the process sometimes something extraordinary occurs and a contemporary masterpiece is unfurled to touch the future……. Posterity will have seen history in the making at the Nehru Centre on 30 December 1995.'' Ken Hunt Navras Records is privileged to bring out this phenomenal performance - The Valley Recalls - on DVD format, having already been the best selling CD title on the Navras Catalogue since its release in 1996. The fact that this performance is a sequel to a blockbuster Call Of The Valley album released in 1967 by EMI has for always marked this as a very significant landmark, not least being after a duration of almost 30 years! The departure point from the original recording in this case is simply that not only there is a long, extended and far more improvised version of Raga Bhoopali, but the fact that the thematic part, ''Peace Love & Harmony'' is also a largely improvised performance makes this also a unique and a landmark offering. The maturing of Sharma and Chaurasia is visible in their presentation of their music and despite a huge gap since their previous duet, the clear fusing of their minds and music is simply magical! It is as natural and seamless as one could possibly imagine! Hearing this concert on a CD gave one flutters but to see it being performed visually makes one fully realise what an incredible performance this is! Apart from the pedigree, it is better to identify The Valley Recalls more as iconic in its own right rather than a sequel, per se, to what in the 1960s was a mould breaking effort to bring classical music in an idiom more widely acceptable and enjoyable. The Valley Recalls has moved on to altogether different level of performance and complexity, combining the highest standards of classical rigour (Raga Bhoopali) with breath-taking presentation of a thematic form - improvised, less rigorous and thoroughly enjoyable! The DVDs also features an exclusive interview with Pandit Shivkumar Sharma & Hariprasad Chaurasia.
Shivkumar Sharma & Hariprasad Chaurasia - The Valley Recalls (1995) {2CD+2DVD5 NTSC Sony Music-Navras}


Personnel:
Pandit Shivkumar Sharma - Santoor
Pandit Hariprasad Chaurasia - flute

Accompanying:
Pandit Bhavani Shankar (Pakhawaj), Pandit Anindo Chatterjee (Tabla), Pandit Shubhankar Banerjee (Tabla), Jayanthi Shah (Acoustic Guitar), Rahul Sharma (Tanpura)

Shivkumar Sharma & Hariprasad Chaurasia - The Valley Recalls (1995) {2CD+2DVD5 NTSC Sony Music-Navras}


tracklist:
CD1

01 - Peace - Alap
02 - Peace - Gat
03 - Love - Alap
04 - Love - Gat
05 - Harmony - Alap
06 - Harmony - Gat

Shivkumar Sharma & Hariprasad Chaurasia - The Valley Recalls (1995) {2CD+2DVD5 NTSC Sony Music-Navras}


CD2
01 - Raga Bhoopali - Alap
02 - Raga Bhoopali - Jod
03 - Raga Bhoopali - Gat in Jhaptal
04 - Raga Bhoopali - Gat in Teental

Shivkumar Sharma & Hariprasad Chaurasia - The Valley Recalls (1995) {2CD+2DVD5 NTSC Sony Music-Navras}


DVD1+DVD2:
Video - Live at the Nebru Centre, Mumbai, December 1995

Shivkumar Sharma & Hariprasad Chaurasia - The Valley Recalls (1995) {2CD+2DVD5 NTSC Sony Music-Navras}

Shivkumar Sharma & Hariprasad Chaurasia - The Valley Recalls (1995) {2CD+2DVD5 NTSC Sony Music-Navras}


Exact Audio Copy V0.99 prebeta 5 from 4. May 2009

EAC extraction logfile from 1. August 2010, 11:55

Shivkumar Sharma & Hariprasad Chaurasia / The Valley Recalls - CD 1

Used drive : HL-DT-STDVDRAM GSA-H42N Adapter: 0 ID: 1

Read mode : Secure
Utilize accurate stream : Yes
Defeat audio cache : Yes
Make use of C2 pointers : No

Read offset correction : 667
Overread into Lead-In and Lead-Out : No
Fill up missing offset samples with silence : Yes
Delete leading and trailing silent blocks : No
Null samples used in CRC calculations : Yes
Used interface : Installed external ASPI interface
Gap handling : Appended to previous track

Used output format : Internal WAV Routines
Sample format : 44.100 Hz; 16 Bit; Stereo


TOC of the extracted CD

Track | Start | Length | Start sector | End sector
––––––––––––––––––––––––––––-
1 | 0:00.00 | 8:14.05 | 0 | 37054
2 | 8:14.05 | 16:38.30 | 37055 | 111934
3 | 24:52.35 | 5:56.70 | 111935 | 138704
4 | 30:49.30 | 13:38.50 | 138705 | 200104
5 | 44:28.05 | 9:00.20 | 200105 | 240624
6 | 53:28.25 | 23:43.70 | 240625 | 347419


Track 1

Filename E:\Wildstrings\01 - Peace - Alap.wav

Pre-gap length 0:00:02.00

Peak level 54.5 %
Track quality 100.0 %
Test CRC 78FF2555
Copy CRC 78FF2555
Cannot be verified as accurate (confidence 2) [0E1B65B1], AccurateRip returned [5401DD97]
Copy OK

Track 2

Filename E:\Wildstrings\02 - Peace - Gat.wav

Pre-gap length 0:00:01.45

Peak level 100.0 %
Track quality 100.0 %
Test CRC FAEB1528
Copy CRC FAEB1528
Cannot be verified as accurate (confidence 2) [FC8E0468], AccurateRip returned [DA5B1DE7]
Copy OK

Track 3

Filename E:\Wildstrings\03 - Love - Alap.wav

Pre-gap length 0:00:01.45

Peak level 90.8 %
Track quality 99.9 %
Test CRC 34191918
Copy CRC 34191918
Cannot be verified as accurate (confidence 2) [C85AAC8B], AccurateRip returned [8FA6E822]
Copy OK

Track 4

Filename E:\Wildstrings\04 - Love - Gat.wav

Pre-gap length 0:00:01.45

Peak level 100.0 %
Track quality 100.0 %
Test CRC 839DF5AE
Copy CRC 839DF5AE
Cannot be verified as accurate (confidence 2) [796B17F2], AccurateRip returned [3C7707F5]
Copy OK

Track 5

Filename E:\Wildstrings\05 - Harmony - Alap.wav

Pre-gap length 0:00:01.45

Peak level 69.3 %
Track quality 99.9 %
Test CRC 9856258F
Copy CRC 9856258F
Cannot be verified as accurate (confidence 2) [E87F3E25], AccurateRip returned [35462DD1]
Copy OK

Track 6

Filename E:\Wildstrings\06 - Harmony - Gat.wav

Pre-gap length 0:00:01.45

Peak level 100.0 %
Track quality 99.8 %
Test CRC C83808E0
Copy CRC C83808E0
Cannot be verified as accurate (confidence 2) [C904CF27], AccurateRip returned [570E03E9]
Copy OK


No tracks could be verified as accurate
You may have a different pressing from the one(s) in the database

No errors occurred

End of status report

Exact Audio Copy V0.99 prebeta 5 from 4. May 2009

EAC extraction logfile from 1. August 2010, 14:06

Shivkumar Sharma & Hariprasad Chaurasia / The Valley Recalls - CD 2

Used drive : MOSER BAER DH-22A8S Adapter: 2 ID: 1

Read mode : Secure
Utilize accurate stream : Yes
Defeat audio cache : Yes
Make use of C2 pointers : No

Read offset correction : 6
Overread into Lead-In and Lead-Out : No
Fill up missing offset samples with silence : Yes
Delete leading and trailing silent blocks : No
Null samples used in CRC calculations : Yes
Used interface : Installed external ASPI interface
Gap handling : Appended to previous track

Used output format : Internal WAV Routines
Sample format : 44.100 Hz; 16 Bit; Stereo


TOC of the extracted CD

Track | Start | Length | Start sector | End sector
––––––––––––––––––––––––––––-
1 | 0:00.00 | 17:40.50 | 0 | 79549
2 | 17:40.50 | 18:24.55 | 79550 | 162404
3 | 36:05.30 | 19:30.10 | 162405 | 250164
4 | 55:35.40 | 13:51.45 | 250165 | 312534


Track 1

Filename E:\Wildstrings\01 - Raga Bhoopali - Alap.wav

Pre-gap length 0:00:02.00

Peak level 79.1 %
Track quality 100.0 %
Test CRC 88C060F1
Copy CRC 88C060F1
Track not present in AccurateRip database
Copy OK

Track 2

Filename E:\Wildstrings\02 - Raga Bhoopali - Jod.wav

Pre-gap length 0:00:01.45

Peak level 100.0 %
Track quality 100.0 %
Test CRC 957812FD
Copy CRC 957812FD
Track not present in AccurateRip database
Copy OK

Track 3

Filename E:\Wildstrings\03 - Raga Bhoopali - Gat in Jhaptal.wav

Pre-gap length 0:00:01.45

Peak level 100.0 %
Track quality 100.0 %
Test CRC 2B727472
Copy CRC 2B727472
Track not present in AccurateRip database
Copy OK

Track 4

Filename E:\Wildstrings\04 - Raga Bhoopali - Gat in Teental.wav

Pre-gap length 0:00:01.45

Peak level 100.0 %
Track quality 100.0 %
Test CRC FB088D7E
Copy CRC FB088D7E
Track not present in AccurateRip database
Copy OK


None of the tracks are present in the AccurateRip database

No errors occurred

End of status report

I 20:12:00 DVD Decrypter Version 3.5.4.0 started!
I 20:12:00 Microsoft Windows XP Professional (5.1, Build 2600 : Service Pack 3)
I 20:12:00 Initialising SPTI…
I 20:12:00 Searching for SCSI / ATAPI devices…
I 20:12:00 Found 2 DVD-RAM/±RWs!
W 20:12:03 Possible Structure Protection Found!
W 20:12:03 1 area has been marked as 'suspect'.
W 20:12:03 Dummy sectors will be inserted where necessary.
I 20:12:54 Operation Started!
I 20:12:54 Source Device: [2:1:0] MOSER BAER DH-22A8S 3M71 (G:) (ATA)
I 20:12:54 Source Media Type: DVD-ROM
I 20:12:54 Source Media Region Code: 1, 2, 3, 4, 5, 6, 8
I 20:12:54 Source Media Copyright Protection System Type: CSS/CPPM
I 20:12:54 Source Media Implementation Identifier: Apple Computer, Inc.
I 20:12:54 Destination File: D:\Wildstrings\VALLEY_RECALLS_PT_1.ISO
I 20:12:54 File Splitting: None
I 20:12:54 Hardware Read Error Retries: 20
I 20:12:54 Remove Structure Protection: No
I 20:12:54 Bad Sector Removal Method: Normal
I 20:12:54 Detect Mastering Errors: No
I 20:12:54 Remove Macrovision Protection: Yes
I 20:12:54 Extracting Sectors… (LBA: 0 - 1557983)
I 20:12:57 Found IFO File: VIDEO_TS.IFO - (LBA: 295 - 301)
I 20:12:58 Found VOB File: VIDEO_TS.VOB - (LBA: 302 - 358) - KEY: N/A
I 20:12:58 Found BUP File: VIDEO_TS.BUP - (LBA: 359 - 365)
I 20:12:58 Found IFO File: VTS_01_0.IFO - (LBA: 366 - 401)
I 20:12:58 Found VOB File: VTS_01_0.VOB - (LBA: 402 - 34063) - KEY: D7 48 76 E8 04
I 20:13:12 Found VOB File: VTS_01_1.VOB - (LBA: 34064 - 558265) - KEY: D7 48 76 E8 04
I 20:16:13 Found VOB File: VTS_01_2.VOB - (LBA: 558266 - 1082467) - KEY: D7 48 76 E8 04
I 20:18:30 Found VOB File: VTS_01_3.VOB - (LBA: 1082468 - 1557933) - KEY: D7 48 76 E8 04
I 20:20:16 Found BUP File: VTS_01_0.BUP - (LBA: 1557934 - 1557969)
I 20:20:16 Operation Successfully Completed! - Duration: 00:07:22
I 20:20:16 Average Read Rate: 7,049 KB/s (5.1x) - Maximum Read Rate: 9,765 KB/s (7.1x)

I 20:25:20 DVD Decrypter Version 3.5.4.0 started!
I 20:25:20 Microsoft Windows XP Professional (5.1, Build 2600 : Service Pack 3)
I 20:25:20 Initialising SPTI…
I 20:25:20 Searching for SCSI / ATAPI devices…
I 20:25:20 Found 2 DVD-RAM/±RWs!
W 20:25:21 Possible Structure Protection Found!
W 20:25:21 1 area has been marked as 'suspect'.
W 20:25:21 Dummy sectors will be inserted where necessary.
I 20:25:52 Operation Started!
I 20:25:52 Source Device: [2:1:0] MOSER BAER DH-22A8S 3M71 (G:) (ATA)
I 20:25:52 Source Media Type: DVD-ROM
I 20:25:52 Source Media Region Code: 1, 2, 3, 4, 5, 6, 8
I 20:25:52 Source Media Copyright Protection System Type: CSS/CPPM
I 20:25:52 Source Media Implementation Identifier: Apple Computer, Inc.
I 20:25:52 Destination File: D:\Wildstrings\VALLEY_RECALLS_PT_2.ISO
I 20:25:52 File Splitting: None
I 20:25:52 Hardware Read Error Retries: 20
I 20:25:52 Remove Structure Protection: No
I 20:25:52 Bad Sector Removal Method: Normal
I 20:25:52 Detect Mastering Errors: No
I 20:25:52 Remove Macrovision Protection: Yes
I 20:25:52 Extracting Sectors… (LBA: 0 - 1591471)
I 20:25:57 Found IFO File: VIDEO_TS.IFO - (LBA: 295 - 301)
I 20:25:58 Found VOB File: VIDEO_TS.VOB - (LBA: 302 - 358) - KEY: N/A
I 20:25:58 Found BUP File: VIDEO_TS.BUP - (LBA: 359 - 365)
I 20:25:58 Found IFO File: VTS_01_0.IFO - (LBA: 366 - 401)
I 20:25:58 Found VOB File: VTS_01_0.VOB - (LBA: 402 - 36518) - KEY: D7 48 76 E8 04
I 20:26:09 Found VOB File: VTS_01_1.VOB - (LBA: 36519 - 560720) - KEY: D7 48 76 E8 04
I 20:29:24 Found VOB File: VTS_01_2.VOB - (LBA: 560721 - 1084922) - KEY: D7 48 76 E8 04
I 20:31:42 Found VOB File: VTS_01_3.VOB - (LBA: 1084923 - 1591425) - KEY: D7 48 76 E8 04
I 20:33:34 Found BUP File: VTS_01_0.BUP - (LBA: 1591426 - 1591461)
I 20:33:34 Operation Successfully Completed! - Duration: 00:07:42
I 20:33:34 Average Read Rate: 6,889 KB/s (5.0x) - Maximum Read Rate: 9,844 KB/s (7.1x)


Shivkumar Sharma & Hariprasad Chaurasia - The Valley Recalls (1995) {2CD+2DVD5 NTSC Sony Music-Navras}

Shivkumar Sharma & Hariprasad Chaurasia - The Valley Recalls (1995) {2CD+2DVD5 NTSC Sony Music-Navras}

Shivkumar Sharma & Hariprasad Chaurasia - The Valley Recalls (1995) {2CD+2DVD5 NTSC Sony Music-Navras}

Shivkumar Sharma & Hariprasad Chaurasia - The Valley Recalls (1995) {2CD+2DVD5 NTSC Sony Music-Navras}


thanks to Wildstrings…

see more indian classical…


===