Subcategories

Shaskeen - Irish Pub Session (2008) {Entertain Me Europe 74579}

Posted By: ruskaval
Shaskeen - Irish Pub Session (2008) {Entertain Me Europe 74579}

Shaskeen - Irish Pub Session (2008) {Entertain Me Europe 74579}
EAC rip (secure mode) | FLAC (tracks)+CUE+LOG -> 241 Mb | MP3 @320 -> 90 Mb
Full Artwork @ 600 dpi (png) -> 64 Mb | 5% repair rar
© 2008 Entertain Me Europe Ltd. | 74579
Folk / Celtic / World / Irish Folk

Shaskeen is a musical group, based in Ireland, which performs Irish traditional music. It was formed in the 1970's and was still performing and recording here in 2019. The band celebrated 40 years on the road in 2010

You can believe the CD title right from the off and everybody in the whole world will know that this is Irish. A wee bit of volume and a wee sip of 'the black stuff' and you could have a street party. Great!

TRACK LISTING:

01. Shaskeen Reel - 04:06
02. Paddy's Gone To France / Concertina Reel - 03:04
03. Lark In The Morning Selection - 03:27
04. Farewell To Erin / Darby's Favourite / Humours Of Toomagh - 03:20
05. Clare Polkas Selection - 02:24
06. Gallagher's Frolics / Richard Brennans / Battering Ram - 02:45
07. Stone Outside Dan Murphy's Door / Kircoff's Rag - 03:35
08. Ballinacura Hare / Keane's Delight - 02:23
09. The Praties They Grow Small - 03:11
10. Crowley's / The Camerone's / The Masons Apron - 03:15
11. Kerry Polka's Selection - 03:03
12. Pigeon On The Gate / The Foxhunters - 03:32

Exact Audio Copy V1.3 from 2. September 2016

EAC extraction logfile from 12. January 2019, 10:45

Shaskeen / Irish Pub Session

Used drive : ASUS BW-16D1HT Adapter: 1 ID: 0

Read mode : Secure
Utilize accurate stream : Yes
Defeat audio cache : Yes
Make use of C2 pointers : No

Read offset correction : 6
Overread into Lead-In and Lead-Out : No
Fill up missing offset samples with silence : Yes
Delete leading and trailing silent blocks : No
Null samples used in CRC calculations : Yes
Used interface : Native Win32 interface for Win NT & 2000
Gap handling : Appended to previous track

Used output format : User Defined Encoder
Selected bitrate : 896 kBit/s
Quality : High
Add ID3 tag : No
Command line compressor : C:\Exact Audio Copy\FLAC\FLAC.EXE
Additional command line options : -8 -V -T "ARTIST=%artist%" -T "TITLE=%title%" -T "ALBUM=%albumtitle%" -T "DATE=%year%" -T "TRACKNUMBER=%tracknr%" -T "TOTALTRACKS=%numtracks%" -T "GENRE=%genre%" -T "ALBUMARTIST=%albumartist%" -T "ALBUM ARTIST=%albumartist%" -T "COMMENT=EAC Secure Mode, Test & Copy, AccurateRip, FLAC -8" %source%


TOC of the extracted CD

Track | Start | Length | Start sector | End sector
––––––––––––––––––––––––––––-
1 | 0:00.00 | 4:05.55 | 0 | 18429
2 | 4:05.55 | 3:03.58 | 18430 | 32212
3 | 7:09.38 | 3:26.38 | 32213 | 47700
4 | 10:36.01 | 3:19.57 | 47701 | 62682
5 | 13:55.58 | 2:23.40 | 62683 | 73447
6 | 16:19.23 | 2:44.43 | 73448 | 85790
7 | 19:03.66 | 3:35.25 | 85791 | 101940
8 | 22:39.16 | 2:22.44 | 101941 | 112634
9 | 25:01.60 | 3:11.01 | 112635 | 126960
10 | 28:12.61 | 3:15.21 | 126961 | 141606
11 | 31:28.07 | 3:02.46 | 141607 | 155302
12 | 34:30.53 | 3:31.71 | 155303 | 171198


Track 1

Filename E:\01 - Shaskeen Reel.wav

Pre-gap length 0:00:02.00

Peak level 96.6 %
Extraction speed 1.2 X
Track quality 100.0 %
Test CRC A4F93CF7
Copy CRC A4F93CF7
Track not present in AccurateRip database
Copy OK

Track 2

Filename E:\02 - Paddy's Gone To France-Concertina Reel.wav

Pre-gap length 0:00:01.46

Peak level 99.3 %
Extraction speed 1.2 X
Track quality 100.0 %
Test CRC 3FFC315B
Copy CRC 3FFC315B
Track not present in AccurateRip database
Copy OK

Track 3

Filename E:\03 - Lark In The Morning Selection.wav

Pre-gap length 0:00:01.54

Peak level 99.9 %
Extraction speed 1.1 X
Track quality 99.9 %
Test CRC 3BAF3372
Copy CRC 3BAF3372
Track not present in AccurateRip database
Copy OK

Track 4

Filename E:\04 - Farewell To Erin-Darby's Favourite-Humours Of Toomagh.wav

Pre-gap length 0:00:01.50

Peak level 99.9 %
Extraction speed 1.4 X
Track quality 100.0 %
Test CRC ED5FC51C
Copy CRC ED5FC51C
Track not present in AccurateRip database
Copy OK

Track 5

Filename E:\05 - Clare Polkas Selection.wav

Pre-gap length 0:00:01.45

Peak level 99.9 %
Extraction speed 1.4 X
Track quality 100.0 %
Test CRC BCD2856E
Copy CRC BCD2856E
Track not present in AccurateRip database
Copy OK

Track 6

Filename E:\06 - Gallagher's Frolics-Richard Brennans-Battering Ram.wav

Pre-gap length 0:00:01.48

Peak level 99.9 %
Extraction speed 1.5 X
Track quality 100.0 %
Test CRC 609BA09E
Copy CRC 609BA09E
Track not present in AccurateRip database
Copy OK

Track 7

Filename E:\07 - Stone Outside Dan Murphy's Door-Kircoff's Rag.wav

Pre-gap length 0:00:01.49

Peak level 91.7 %
Extraction speed 1.6 X
Track quality 100.0 %
Test CRC 4822713D
Copy CRC 4822713D
Track not present in AccurateRip database
Copy OK

Track 8

Filename E:\08 - Ballinacura Hare-Keane's Delight.wav

Pre-gap length 0:00:01.51

Peak level 99.7 %
Extraction speed 1.5 X
Track quality 100.0 %
Test CRC 656F1751
Copy CRC 656F1751
Track not present in AccurateRip database
Copy OK

Track 9

Filename E:\09 - The Praties They Grow Small.wav

Pre-gap length 0:00:01.46

Peak level 94.1 %
Extraction speed 1.7 X
Track quality 100.0 %
Test CRC 6D30C87A
Copy CRC 6D30C87A
Track not present in AccurateRip database
Copy OK

Track 10

Filename E:\10 - Crowley's-The Camerone's-The Masons Apron.wav

Pre-gap length 0:00:01.47

Peak level 96.3 %
Extraction speed 1.7 X
Track quality 100.0 %
Test CRC F8921996
Copy CRC F8921996
Track not present in AccurateRip database
Copy OK

Track 11

Filename E:\11 - Kerry Polka's Selection.wav

Pre-gap length 0:00:01.51

Peak level 94.1 %
Extraction speed 1.5 X
Track quality 99.9 %
Test CRC 9BB3DC3B
Copy CRC 9BB3DC3B
Track not present in AccurateRip database
Copy OK

Track 12

Filename E:\12 - Pigeon On The Gate-The Foxhunters.wav

Pre-gap length 0:00:01.46

Peak level 97.2 %
Extraction speed 1.9 X
Track quality 100.0 %
Test CRC EFAFC386
Copy CRC EFAFC386
Track not present in AccurateRip database
Copy OK


None of the tracks are present in the AccurateRip database

No errors occurred

End of status report

==== Log checksum C1AC2CEA00B16B641112FDB7BDD03301AEF62F7E8BC39364D908A2467B002B08 ====


Shaskeen - Irish Pub Session (2008) {Entertain Me Europe 74579}

Shaskeen - Irish Pub Session (2008) {Entertain Me Europe 74579}



===