Subcategories

Charlie Shavers - Gershwin, Shavers & Strings (1954) {2014 Japanese Bethlehem Album Collection 1000}

Posted By: ruskaval
Charlie Shavers - Gershwin, Shavers & Strings (1954) {2014 Japanese Bethlehem Album Collection 1000}

Charlie Shavers - Gershwin, Shavers & Strings (1954) {2014 Japanese Bethlehem Album Collection 1000}
EAC rip (secure mode) | FLAC (tracks)+CUE+LOG -> 132 Mb | MP3 @320 -> 74 Mb
Full Artwork @ 600 dpi (png) -> 219 Mb | 5% repair rar
© 2014 Solid Records / Bethlehem | CDSOL-6130 | LP BCP-27
Jazz / Bop / Trumpet

Reissue. Features the latest remastering. Includes a Japanese description, lyrics. Features original cover artwork. The music of George Gershwin, but taken to some great late night territory by the trumpet of Charlie Shavers! The album's a sublime "with strings" date – one that has Charlie blowing beautifully over backdrops from Sy Oliver – charts that certainly use some string instruments, but often in a very spare, mellow way – so that once Shavers gets going, his trumpet is right out front – often with a beautifully moody tone! Titles include "I've Got A Crush On You", "Embraceable You", "Liza", "Summertime", "But Not For Me", and "It Ain't Necessarily So".
Charlie Shavers - Gershwin, Shavers & Strings (1954) {2014 Japanese Bethlehem Album Collection 1000}


Personnel:
Charlie Shavers – trumpet
Sly Oliver - arranger, conductor
Unidentified large studio orchestra

Charlie Shavers - Gershwin, Shavers & Strings (1954) {2014 Japanese Bethlehem Album Collection 1000}


tracklist:
01 - I've Got A Crush On You
02 - Someone To Watch Over Me
03 - Somebody Loves Me
04 - The Man I Love
05 - It Ain't Necessarily So
06 - Liza (All The Coulds 'll Roll Away)
07 - Embraceable You
08 - I've Got Rhythm
09 - Summertime
10 - But Not For Me

Exact Audio Copy V1.0 beta 3 from 29. August 2011

EAC extraction logfile from 22. January 2015, 15:28

Charlie Shaves / Gershwin, Shavers & Strings

Used drive : ATAPI iHAS124 B Adapter: 2 ID: 1

Read mode : Secure
Utilize accurate stream : Yes
Defeat audio cache : Yes
Make use of C2 pointers : No

Read offset correction : 6
Overread into Lead-In and Lead-Out : No
Fill up missing offset samples with silence : Yes
Delete leading and trailing silent blocks : No
Null samples used in CRC calculations : Yes
Used interface : Native Win32 interface for Win NT & 2000
Gap handling : Appended to previous track

Used output format : User Defined Encoder
Selected bitrate : 1024 kBit/s
Quality : High
Add ID3 tag : No
Command line compressor : C:\Program Files (x86)\FLAC Frontend\tools\flac.exe
Additional command line options : -8 -V -T "ARTIST=%artist%" -T "TITLE=%title%" -T "ALBUM=%albumtitle%" -T "DATE=%year%" -T "TRACKNUMBER=%tracknr%" -T "TOTALTRACKS=%numtracks%" -T "GENRE=%genre%" -T "ALBUMARTIST=%albumartist%" -T "ALBUM ARTIST=%albumartist%" -T "COMMENT=EAC Secure Mode, Test & Copy, AccurateRip, FLAC -8" %source%


TOC of the extracted CD

Track | Start | Length | Start sector | End sector
––––––––––––––––––––––––––––-
1 | 0:00.00 | 2:40.72 | 0 | 12071
2 | 2:40.72 | 3:09.19 | 12072 | 26265
3 | 5:50.16 | 2:49.07 | 26266 | 38947
4 | 8:39.23 | 3:12.40 | 38948 | 53387
5 | 11:51.63 | 3:09.40 | 53388 | 67602
6 | 15:01.28 | 3:10.04 | 67603 | 81856
7 | 18:11.32 | 3:14.56 | 81857 | 96462
8 | 21:26.13 | 2:58.48 | 96463 | 109860
9 | 24:24.61 | 3:50.16 | 109861 | 127126
10 | 28:15.02 | 3:19.45 | 127127 | 142096


Track 1

Filename C:\Charlie Shavers - Gershwin, Shavers & Strings (1954) {2014 Japanese Bethlehem Album Collection 1000}\01 - I've Got A Crush On You.wav

Pre-gap length 0:00:02.00

Peak level 98.2 %
Extraction speed 3.1 X
Track quality 100.0 %
Test CRC F4184CAA
Copy CRC F4184CAA
Track not present in AccurateRip database
Copy OK

Track 2

Filename C:\Charlie Shavers - Gershwin, Shavers & Strings (1954) {2014 Japanese Bethlehem Album Collection 1000}\02 - Someone To Watch Over Me.wav

Peak level 98.2 %
Extraction speed 2.7 X
Track quality 99.9 %
Test CRC A3F05978
Copy CRC A3F05978
Track not present in AccurateRip database
Copy OK

Track 3

Filename C:\Charlie Shavers - Gershwin, Shavers & Strings (1954) {2014 Japanese Bethlehem Album Collection 1000}\03 - Somebody Loves Me.wav

Peak level 98.1 %
Extraction speed 3.7 X
Track quality 100.0 %
Test CRC 72F0404B
Copy CRC 72F0404B
Track not present in AccurateRip database
Copy OK

Track 4

Filename C:\Charlie Shavers - Gershwin, Shavers & Strings (1954) {2014 Japanese Bethlehem Album Collection 1000}\04 - The Man I Love.wav

Peak level 98.2 %
Extraction speed 3.1 X
Track quality 99.9 %
Test CRC 348ADF52
Copy CRC 348ADF52
Track not present in AccurateRip database
Copy OK

Track 5

Filename C:\Charlie Shavers - Gershwin, Shavers & Strings (1954) {2014 Japanese Bethlehem Album Collection 1000}\05 - It Ain't Necessarily So.wav

Peak level 98.2 %
Extraction speed 3.3 X
Track quality 99.9 %
Test CRC 5C559422
Copy CRC 5C559422
Track not present in AccurateRip database
Copy OK

Track 6

Filename C:\Charlie Shavers - Gershwin, Shavers & Strings (1954) {2014 Japanese Bethlehem Album Collection 1000}\06 - Liza (All The Coulds 'll Roll Away).wav

Peak level 98.2 %
Extraction speed 4.5 X
Track quality 100.0 %
Test CRC 66C289F0
Copy CRC 66C289F0
Track not present in AccurateRip database
Copy OK

Track 7

Filename C:\Charlie Shavers - Gershwin, Shavers & Strings (1954) {2014 Japanese Bethlehem Album Collection 1000}\07 - Embraceable You.wav

Peak level 98.2 %
Extraction speed 4.7 X
Track quality 100.0 %
Test CRC 3D5B3112
Copy CRC 3D5B3112
Track not present in AccurateRip database
Copy OK

Track 8

Filename C:\Charlie Shavers - Gershwin, Shavers & Strings (1954) {2014 Japanese Bethlehem Album Collection 1000}\08 - I've Got Rhythm.wav

Peak level 98.2 %
Extraction speed 3.7 X
Track quality 99.9 %
Test CRC 2FD4F178
Copy CRC 2FD4F178
Track not present in AccurateRip database
Copy OK

Track 9

Filename C:\Charlie Shavers - Gershwin, Shavers & Strings (1954) {2014 Japanese Bethlehem Album Collection 1000}\09 - Summertime.wav

Peak level 98.2 %
Extraction speed 5.3 X
Track quality 100.0 %
Test CRC 5CCCE135
Copy CRC 5CCCE135
Track not present in AccurateRip database
Copy OK

Track 10

Filename C:\Charlie Shavers - Gershwin, Shavers & Strings (1954) {2014 Japanese Bethlehem Album Collection 1000}\10 - But Not For Me.wav

Peak level 98.2 %
Extraction speed 5.4 X
Track quality 100.0 %
Test CRC 633E84BF
Copy CRC 633E84BF
Track not present in AccurateRip database
Copy OK


None of the tracks are present in the AccurateRip database

No errors occurred

End of status report

==== Log checksum 3486690185FFB2EC71D890A0E1F6F1CD3E40C38B268726FFD2841F654A209A33 ====


Charlie Shavers - Gershwin, Shavers & Strings (1954) {2014 Japanese Bethlehem Album Collection 1000}

Charlie Shavers - Gershwin, Shavers & Strings (1954) {2014 Japanese Bethlehem Album Collection 1000}




NEXT -> More 2014 Japanese Bethlehem Album Collection 1000 Remasters…