Subcategories

Shelly Manne & His Men - West Coast Jazz In England (1960) {Solar Records 4569886 rel 2011}

Posted By: ruskaval
Shelly Manne & His Men - West Coast Jazz In England (1960) {Solar Records 4569886 rel 2011}

Shelly Manne & His Men - West Coast Jazz In England (1960) {Solar Records 4569886 rel 2011}
EAC rip (secure mode) | FLAC (tracks)+CUE+LOG -> 217 Mb | MP3 @320 -> 136 Mb
Full Artwork @ 300 dpi (jpg) -> 25 Mb | 5% repair rar
© 1960, 2011 Solar Records | 4569886
Jazz / Bop / Cool / West Coast Jazz

Digitally remastered release that contains, for the first time ever on CD, a complete live performance in Manchester by the legendary Shelly Manne quintet with Joe Gordon and Richie Kamuca. This short lived group had produced the celebrated multi-volume albums at the Blackhawk, in San Francisco, the previous year (with Victor Feldman on piano instead of Russ Freeman), as well as celebrated recordings of Henry Mancini's Peter Gunn music. The Manchester concert, which was only previously released on an extremely rare long out of print LP, showcases the quintet in high spirits, and offers a new opportunity to appreciate the talents of trumpeter Joe Gordon, who would die soon after.
Shelly Manne & His Men - West Coast Jazz In England (1960) {Solar Records 4569886 rel 2011}


Personnel:
Joe Gordon, trumpet
Richie Kamuca, tenor sax
Russ Freeman, piano
Monty Budwig, bass
Shelly Manne, drums

tracklist:
01 - Our Delight
02 - Bag's Groove
03 - Nightingale
04 - The Vamp's Blues
05 - I've Grown Accustomed To Her Face
06 - Cabu
07 - Straight, No Chaser (bonus track)
08 - Yesterdays (bonus track)

Tr. 1-6 recorded live at Free Trade Hall, Manchester, England, March 12, 1960.
Tr. 7 and 8 are bonus tracks recorded live in Copenhagen, Denmark, March 2, 1960.


Exact Audio Copy V1.1 from 23. June 2015

EAC extraction logfile from 4. May 2017, 13:26

Shelly Manne & His Men / West Coast Jazz In England

Used drive : TSSTcorpCDDVDW SE-208DB Adapter: 1 ID: 2

Read mode : Secure
Utilize accurate stream : Yes
Defeat audio cache : Yes
Make use of C2 pointers : No

Read offset correction : 6
Overread into Lead-In and Lead-Out : No
Fill up missing offset samples with silence : Yes
Delete leading and trailing silent blocks : No
Null samples used in CRC calculations : Yes
Used interface : Native Win32 interface for Win NT & 2000
Gap handling : Appended to previous track

Used output format : User Defined Encoder
Selected bitrate : 1024 kBit/s
Quality : High
Add ID3 tag : No
Command line compressor : C:\Program Files (x86)\FLAC Frontend\tools\flac.exe
Additional command line options : -8 -V -T "ARTIST=%artist%" -T "TITLE=%title%" -T "ALBUM=%albumtitle%" -T "DATE=%year%" -T

"TRACKNUMBER=%tracknr%" -T "TOTALTRACKS=%numtracks%" -T "GENRE=%genre%" -T "ALBUMARTIST=%albumartist%" -T "ALBUM

ARTIST=%albumartist%" -T "COMMENT=EAC Secure Mode, Test & Copy, AccurateRip, FLAC -8" %source%


TOC of the extracted CD

Track | Start | Length | Start sector | End sector
––––––––––––––––––––––––––––-
1 | 0:00.00 | 6:53.49 | 0 | 31023
2 | 6:53.49 | 11:25.10 | 31024 | 82408
3 | 18:18.59 | 6:24.68 | 82409 | 111276
4 | 24:43.52 | 10:39.12 | 111277 | 159213
5 | 35:22.64 | 4:10.31 | 159214 | 177994
6 | 39:33.20 | 7:04.72 | 177995 | 209866
7 | 46:38.17 | 8:28.43 | 209867 | 248009
8 | 55:06.60 | 8:21.10 | 248010 | 285594


Track 1

Filename D:\_EAC\Shelly Manne & His Men - West Coast Jazz In England (1960) [FLAC]\01 - Our Delight.wav

Pre-gap length 0:00:02.00

Peak level 86.3 %
Extraction speed 2.7 X
Track quality 99.9 %
Test CRC BFF636D2
Copy CRC BFF636D2
Track not present in AccurateRip database
Copy OK

Track 2

Filename D:\_EAC\Shelly Manne & His Men - West Coast Jazz In England (1960) [FLAC]\02 - Bag's Groove.wav

Peak level 90.4 %
Extraction speed 3.8 X
Track quality 100.0 %
Test CRC A26F8CB9
Copy CRC A26F8CB9
Track not present in AccurateRip database
Copy OK

Track 3

Filename D:\_EAC\Shelly Manne & His Men - West Coast Jazz In England (1960) [FLAC]\03 - Nightingale.wav

Peak level 89.0 %
Extraction speed 4.1 X
Track quality 100.0 %
Test CRC CB80F9FC
Copy CRC CB80F9FC
Track not present in AccurateRip database
Copy OK

Track 4

Filename D:\_EAC\Shelly Manne & His Men - West Coast Jazz In England (1960) [FLAC]\04 - The Vamp's Blues.wav

Peak level 91.6 %
Extraction speed 4.7 X
Track quality 100.0 %
Test CRC A604E9F7
Copy CRC A604E9F7
Track not present in AccurateRip database
Copy OK

Track 5

Filename D:\_EAC\Shelly Manne & His Men - West Coast Jazz In England (1960) [FLAC]\05 - I've Grown Accustomed To Her Face.wav

Peak level 85.4 %
Extraction speed 4.5 X
Track quality 100.0 %
Test CRC BCC2C7D2
Copy CRC BCC2C7D2
Track not present in AccurateRip database
Copy OK

Track 6

Filename D:\_EAC\Shelly Manne & His Men - West Coast Jazz In England (1960) [FLAC]\06 - Cabu.wav

Peak level 87.1 %
Extraction speed 4.4 X
Track quality 99.9 %
Test CRC 04E2761F
Copy CRC 04E2761F
Track not present in AccurateRip database
Copy OK

Track 7

Filename D:\_EAC\Shelly Manne & His Men - West Coast Jazz In England (1960) [FLAC]\07 - Straight, No Chaser.wav

Peak level 100.0 %
Extraction speed 5.4 X
Track quality 100.0 %
Test CRC FD328765
Copy CRC FD328765
Track not present in AccurateRip database
Copy OK

Track 8

Filename D:\_EAC\Shelly Manne & His Men - West Coast Jazz In England (1960) [FLAC]\08 - Yesterdays.wav

Peak level 100.0 %
Extraction speed 5.6 X
Track quality 100.0 %
Test CRC 6A388DA3
Copy CRC 6A388DA3
Track not present in AccurateRip database
Copy OK


None of the tracks are present in the AccurateRip database

No errors occurred

End of status report

==== Log checksum 55F1257F2A10BFBC4E62449280F2678893C2FB4FE365D47F85B81B391A5AF99F


Shelly Manne & His Men - West Coast Jazz In England (1960) {Solar Records 4569886 rel 2011}

Shelly Manne & His Men - West Coast Jazz In England (1960) {Solar Records 4569886 rel 2011}



===