Subcategories

(Shonen Knife) Osaka Ramones - Tribute To The Ramones (2011) RESTORED

Posted By: Rehabilly
(Shonen Knife) Osaka Ramones - Tribute To The Ramones (2011) RESTORED

Osaka Ramones - Tribute To The Ramones (2011)
FLAC+CUE+LOG or MP3 CBR 320 | 33:25 mins | 295 or 102 MB

Osaka Japan's Shonen Knife celebrates 30th Anniversary with the release of "Osaka Ramones" tribute CD to one of their biggest musical inspirations since the infancy of their still vibrant career 3 decades ago … NYC's legendary Ramones.

Shonen Knife have been the most internationally recognized name in Japanese Rock music since their entrance onto the alternative rock scene in the early 90s seeing them become the indie darlings of hipsters and rock stars alike. 2011 celebrates thirty years since Naoko and the band began releasing albums of their joyous mixture of pop, punk, food and fantasy for the world to enjoy. Since their inception in Osaka in 1981 (featuring Naoko's sister Atsuko and their friend, bassist/vocalist Michie) to their current lineup featuring members Ritsuko (b,v) and Emi (dr,v), SK have maintained their rightful place in the ever changing indie rock scene.

"Osaka Ramones" is not only the name of this tribute album, but is also the name of the side project which has made its way in and out of Shonen Knife's performing history for decades. This East meets West punk rock combination is now captured in an album recorded and mixed between Osaka, JP and New York over the last year and was co-produced by Robby Takac of the American rock band Goo Goo Dolls.

The album release will be supported by a North American tour, please enjoy this awesome collection of songs and celebrate the music of the world's greatest punk rock band while we celebrate the 4th decade of Japan's indie rock icons, the mighty Shonen Knife… Hey Ho, Let's Go ! …



Ramones were my all-time idols since I first heard their music from a radio and rushed to a record shop. This year is the 30th anniversary of Shonen Knife. For celebration, we decided to record a cover album of our favorite band the Ramones. The title is "Osaka Ramones" with our respect. I'm very happy to release an Osaka Ramones project and to recognize their contribution to the evolution of Shonen Knife.

~ Naoko Yamano, Shonen Knife

Tracklist:

01. Blitzkrieg Bop
02. Rock 'N' Roll High School
03. We Want The Airwaves
04. She's The One
05. Rockaway Beach
06. Sheena Is A Punk Rocker
07. Scattergun
08. Psycho Therapy
09. The KKK Took My Baby Away
10. We're A Happy Family
11. Chinese Rock
12. Beat On The Brat
13. Pinhead

Exact Audio Copy V1.0 beta 1 from 15. November 2010

EAC extraction logfile from 10. August 2011, 12:58

Shonen Knife / Osaka Ramones (Tribute To The Ramones)

Used drive : PLEXTOR DVDR PX-716A Adapter: 1 ID: 0

Read mode : Secure
Utilize accurate stream : Yes
Defeat audio cache : Yes
Make use of C2 pointers : No

Read offset correction : 30
Overread into Lead-In and Lead-Out : No
Fill up missing offset samples with silence : Yes
Delete leading and trailing silent blocks : No
Null samples used in CRC calculations : Yes
Used interface : Installed external ASPI interface

Used output format : Internal WAV Routines
Sample format : 44.100 Hz; 16 Bit; Stereo


TOC of the extracted CD

Track | Start | Length | Start sector | End sector
––––––––––––––––––––––––––––-
1 | 0:00.00 | 2:13.21 | 0 | 9995
2 | 2:13.21 | 2:22.66 | 9996 | 20711
3 | 4:36.12 | 3:28.00 | 20712 | 36311
4 | 8:04.12 | 2:18.73 | 36312 | 46734
5 | 10:23.10 | 2:08.69 | 46735 | 56403
6 | 12:32.04 | 3:07.16 | 56404 | 70444
7 | 15:39.20 | 2:35.00 | 70445 | 82069
8 | 18:14.20 | 2:30.01 | 82070 | 93320
9 | 20:44.21 | 2:33.59 | 93321 | 104854
10 | 23:18.05 | 2:35.14 | 104855 | 116493
11 | 25:53.19 | 2:28.22 | 116494 | 127615
12 | 28:21.41 | 2:36.41 | 127616 | 139356
13 | 30:58.07 | 2:27.23 | 139357 | 150404


Range status and errors

Selected range

Filename C:\AvaxHome.ru\(Shonen Knife) Osaka Ramones - Tribute To The Ramones (2011)\Shonen Knife - Osaka Ramones (Tribute To The Ramones).wav

Peak level 97.7 %
Extraction speed 0.2 X
Range quality 100.0 %
Test CRC 3F85AF4C
Copy CRC 3F85AF4C
Copy OK

No errors occurred


AccurateRip summary

Track 1 not present in database
Track 2 not present in database
Track 3 not present in database
Track 4 not present in database
Track 5 not present in database
Track 6 not present in database
Track 7 not present in database
Track 8 not present in database
Track 9 not present in database
Track 10 not present in database
Track 11 not present in database
Track 12 not present in database
Track 13 not present in database

None of the tracks are present in the AccurateRip database

End of status report

==== Log checksum 56A661AD7CD34CBED7E9C2DD4A5EB0E6E4EA6875C3B40B2B6BF6F793CC776607 ====


Tracks "1, 6, 10, 12, 13" Recorded at GCR Audio in Buffalo, NY.,
Engineered by Justin Rose, and Produced by Naoko Yamano & Robby Takac.
Tracks "2-5, 7-9, 11" Recorded at Yotsubashi LM Studio in Osaka, Japan,
Engineered by Ippei Suda, and Produced by Naoko Yamano & Atsushi Shibata.
Mixed by Robby Takac & Justin Rose at GCR Audio. Mastered by Bob Mussell.

• Naoko - vocals, guitars
• Ritsuko - bass, vocals on "6"
• Emi - drums, vocals on "9"

Release Date: July 19, 2011
Label: Good Charamel Records
Catalog No.: GC 025

The Right choice*
http://www.uploadable.ch/file/qhQJ5YTBdtVE/SHK211OSR976FC.rar

lossy.mp3
http://www.uploadable.ch/file/A6dzEyAztYnT/SHK211OSR20GC.rar


* EAC Image, embedded cuesheet & more, foobar2000 ready, etc.
(all CUEs, LOGs and other technical info includes in the internal "CD_Support" archive)
Covers packed in both types of archives.