Subcategories

Shorty Rogers And His Orchestra - West Coast Sound, featuring The Giants 1950-1956 [2CD] {2006 Fresh Sound} [repost]

Posted By: ruskaval
Shorty Rogers And His Orchestra - West Coast Sound, featuring The Giants 1950-1956 [2CD] {2006 Fresh Sound} [repost]

Shorty Rogers And His Orchestra - West Coast Sound, featuring The Giants 1950-1956 [2CD] {2006 Fresh Sound}
XLD rip | FLAC (tracks)+CUE+LOG -> 850 Mb | MP3 @320 -> 363 Mb
Full Artwork @ 300 dpi (png) -> 48 Mb | 5% repair rar
© 2006 Fresh Sound Records | FSR 2231
Jazz / Cool / West Coast Jazz / Trumpet

This 2-CD set truly demonstrates what was defined as the "West Coast style of jazz" but, in fact, was the Shorty Rogers style. We can hear arrangements of a loose variety, played by the most outstanding group of musicians of the Los Angeles jazz scene. The music presented here is a major example of Shorty Rogers' great talent, and a milestone in the orchestral idiom of modern jazz. Shorty's writing and playing were a pretty honest reflection of his own personality. If there was ever an individual to be selected as the head of the West Coast school, it definitely would have been Shorty Rogers.
Shorty Rogers And His Orchestra - West Coast Sound, featuring The Giants 1950-1956 [2CD] {2006 Fresh Sound} [repost]

Superb digipack edition with fully illustrated 24-page booklet (rare & unpublished photos).
For Shorty Roger's fans.

Contains 5 albums and one EP on two CDs:
- Modern Sounds by Shorty Rogers and his Giants
- Shorty Rogers and his Giants (RCA)
- Cool and Crazy (RCA)
- EP Hot Blood (RCA)
- Shorty Rogers Courts the Count (RCA)
- The Big Shorty Rogers Express (RCA)

Personnel and dates:

CD1, #1-3: Shorty Rogers (tp), John Graas (frh), Gene Englund (tuba), Art Pepper (as), Bob Cooper (ts), Bob Gioga (bs), Claude Williamson (p), Don Bagley (b), Shelly Manne (d), June Christy (vcl).
Hollywood, August 28, 1950

CD1, #4-9: Shorty Rogers (tp), John Graas (frh), Gene Englund (tuba), Art Pepper (as), Jimmy Giuffre (ts), Hampton Hawes (p), Don Bagley (b), Shelly Manne (d).
Hollywood, July 1, 1951

CD1, #10-17: Shorty Rogers (tp), John Graas (frh), Gene Englund (tuba), Milt Bernhardt (tb), Art Pepper (as), Jimmy Giuffre (ts), Hampton Hawes (p), Joe Mondragon (b), Shelly Manne (d).
Hollywood, January 12 & 15, 1953

CD1, #18-20: Shorty Rogers, Conrad Gozzo, Maynard Ferguson, Tom Reeves, John Howell (tp), Harry Betts, Milt Bernhardt (tb), John Haliburton (btb), John Graas (frh), Gene Englund (tuba), Art Pepper (as, ts), Bud Shank (as, bs), Jimmy Giuffre (cl, ts, bs), Bob Cooper (ts, bs), Marty Paich (p), Curtis Counce (b), Shelly Manne (d).
Hollywood, March 26 & April 2, 1953

CD2, #1-4: Shorty Rogers, Conrad Gozzo, Maynard Ferguson, Tom Reeves, Ray Linn (tp), John Graas (frh), Paul Sarmento (tuba), Jimmy Knepper, Harry Betts (tb), Bob Enevoldsen (btb), Bud Shank, Herb Geller (as), Bill Holman, Bill Perkins (ts), Jimmy Giuffre , Bob Cooper (bs), Russ Freeman (p), Joe Mondragon (b), Shelly Manne (d).
Hollywood, July 14, 1953

CD2, #5-8: Shorty Rogers, Conrad Gozzo, Harry Edison, Clyde Reasinger, Maynard Ferguson (tp), Harry Betts, Milt Bernhardt (tb), Bob Enevoldsen (vtb), John Graas (frh), Paul Sarmento (tuba), Bud Shank, Herb Geller (as), Zoot Sims, Bob Cooper (ts), Jimmy Giuffre (cl, ts, bs), Marty Paich (p), Curtis Counce (b), Shelly Manne (d).
Hollywood, February 2, 1954

CD2, #9-12: Shorty Rogers, Conrad Gozzo, Harry Edison, Pete Candoli, Maynard Ferguson (tp), Harry Betts, Milt Bernhardt (tb), Bob Enevoldsen (vtb), John Graas (frh), Paul Sarmento (tuba), Bud Shank, Herb Geller (as), Bill Holman (ts), Jimmy Giuffre (cl, ts), Bob Gordon (bs), Marty Paich (p), Curtis Counce (b), Shelly Manne (d).
Hollywood, February 9, 1954

CD2, #13-16: Same as above but Zoot Sims (ts) and Bob Cooper (bs) replace Holman and Gordon.
Hollywood, March 3, 1954

CD2, #17: Shorty Rogers (fh), Conte Candoli, Pete Candoli, Buddy Childers (tp), Milt Bernhardt, Frank Rosolino, George Roberts (tb), Bud Shank (as), Bob Cooper, Jack Montrose (ts), Jimmy Giuffre (bs), Pete Jolly (p), Ralph Peña (b), Shelly Manne (d).
Hollywood, December 15, 1955

CD2, #18-20: Shorty Rogers (fh), Conte Candoli, Pete Candoli, Harry Edison, Maynard Ferguson (tp), Milt Bernhardt, Frank Rosolino (tb), Bob Enevoldsen (vtb), George Roberts (btb), John Graas (frh), Paul Sarmento (tuba), Charlie Mariano, Art Pepper (as), Bill Holman, Jack Montrose (ts), Jimmy Giuffre (bs), Lou Levy (p), Ralph Peña (b), Stan Levey (d).
Hollywood, July 5, 1956

Shorty Rogers And His Orchestra - West Coast Sound, featuring The Giants 1950-1956 [2CD] {2006 Fresh Sound} [repost]


tracklist:
CD1

01. A mile down the highway
02. he can come back anytime
03. Do it again
04. Four mothers
05. Didi
06. Sam and the Lady
07. Popo
08. Over the rainbow
09. Apropos
10. Pirouette
11. Bunny
12. Powder puff
13. The pesky serpent
14. Diablo's dance
15. Indian Club
16. Morpo
17. Mambo del crow
18. Coup de Graas
19. Infinity promenade
20. Short stop


CD2
01. Hot blood (The wild one)
02. Blues for Brando
03. Windswept
04. Chino
05. Topsy
06. It's sand, man
07. Basie eyes
08. Doggin' around
09. Jump for me
10. Over and out
11. Down for trouble
12. Swingin' the blues
13. H & J
14. Tickletoe
15. Taps Miller
16. Walk, don't run
17. Audition
18. Pay the piper
19. At home with Sweets
20. Pink Squirrel

X Lossless Decoder version 20101010 (123.3)

XLD extraction logfile from 2010-10-18 17:45:29 +0200

Shorty Rogers / West Coast Sounds - Shorty Rogers And His Orchestra, featuring the Giants 1950-1956 (Disc 1 of 2)

Used drive : TSSTcorp CD/DVDW SH-W162L (revision LC03)

Use cdparanoia mode : YES (CDParanoia III 10.2 engine)
Disable audio cache : OK for the drive with cache less than 2750KB
Make use of C2 pointers : NO
Read offset correction : 6
Max retry count : 100
Gap status : Analyzed, Appended

TOC of the extracted CD
Track | Start | Length | Start sector | End sector
––––––––––––––––––––––––––––-
1 | 00:00:00 | 02:29:28 | 0 | 11202
2 | 02:29:28 | 02:54:22 | 11203 | 24274
3 | 05:23:50 | 02:57:55 | 24275 | 37604
4 | 08:21:30 | 02:50:50 | 37605 | 50404
5 | 11:12:05 | 02:28:30 | 50405 | 61534
6 | 13:40:35 | 03:08:61 | 61535 | 75695
7 | 16:49:21 | 03:03:15 | 75696 | 89435
8 | 19:52:36 | 03:02:62 | 89436 | 103147
9 | 22:55:23 | 02:40:12 | 103148 | 115159
10 | 25:35:35 | 03:14:07 | 115160 | 129716
11 | 28:49:42 | 03:29:36 | 129717 | 145427
12 | 32:19:03 | 02:53:27 | 145428 | 158429
13 | 35:12:30 | 02:41:72 | 158430 | 170576
14 | 37:54:27 | 03:20:09 | 170577 | 185585
15 | 41:14:36 | 02:39:48 | 185586 | 197558
16 | 43:54:09 | 03:31:17 | 197559 | 213400
17 | 47:25:26 | 03:03:29 | 213401 | 227154
18 | 50:28:55 | 02:59:17 | 227155 | 240596
19 | 53:27:72 | 03:36:57 | 240597 | 256853
20 | 57:04:54 | 03:18:35 | 256854 | 271738
21 | 60:23:14 | 03:37:03 | 271739 | 288016
22 | 64:00:17 | 03:23:44 | 288017 | 303285
23 | 67:23:61 | 03:26:40 | 303286 | 318775
24 | 70:50:26 | 03:29:17 | 318776 | 334467
25 | 74:19:43 | 02:39:00 | 334468 | 346392

All Tracks
Album gain : -5.49 dB
Peak : 0.999969

Track 01
Filename : /Users/borgo/Desktop/RIP/01 - A Mile Down The Highway.flac
Pre-gap length : 00:02:00

Track gain : -4.70 dB
Peak : 0.999969
CRC32 hash (test run) : 29AF7086
CRC32 hash : 29AF7086
CRC32 hash (skip zero) : ACC76582
AccurateRip signature : 6085E10D
->Track not present in AccurateRip database.
Statistics
Read error : 0
Skipped (treated as error) : 0
Edge jitter error (maybe fixed) : 0
Atom jitter error (maybe fixed) : 0
Drift error (maybe fixed) : 0
Dropped bytes error (maybe fixed) : 0
Duplicated bytes error (maybe fixed) : 0
Inconsistency in error sectors : 0

Track 02
Filename : /Users/borgo/Desktop/RIP/02 - He Can Come Back Anytime.flac

Track gain : -4.41 dB
Peak : 0.930145
CRC32 hash (test run) : 94AA212C
CRC32 hash : 94AA212C
CRC32 hash (skip zero) : 23A19F90
AccurateRip signature : 0A650B28
->Track not present in AccurateRip database.
Statistics
Read error : 0
Skipped (treated as error) : 0
Edge jitter error (maybe fixed) : 0
Atom jitter error (maybe fixed) : 0
Drift error (maybe fixed) : 0
Dropped bytes error (maybe fixed) : 0
Duplicated bytes error (maybe fixed) : 0
Inconsistency in error sectors : 0

Track 03
Filename : /Users/borgo/Desktop/RIP/03 - Do It Again.flac

Track gain : -3.70 dB
Peak : 0.911163
CRC32 hash (test run) : 558476A2
CRC32 hash : 558476A2
CRC32 hash (skip zero) : 3311CDFF
AccurateRip signature : 8C03C262
->Track not present in AccurateRip database.
Statistics
Read error : 0
Skipped (treated as error) : 0
Edge jitter error (maybe fixed) : 0
Atom jitter error (maybe fixed) : 0
Drift error (maybe fixed) : 0
Dropped bytes error (maybe fixed) : 0
Duplicated bytes error (maybe fixed) : 0
Inconsistency in error sectors : 0

Track 04
Filename : /Users/borgo/Desktop/RIP/04 - Four Mothers.flac

Track gain : -5.65 dB
Peak : 0.936249
CRC32 hash (test run) : 14CAEA72
CRC32 hash : 14CAEA72
CRC32 hash (skip zero) : FAE5B257
AccurateRip signature : 1C4FA95E
->Track not present in AccurateRip database.
Statistics
Read error : 0
Skipped (treated as error) : 0
Edge jitter error (maybe fixed) : 0
Atom jitter error (maybe fixed) : 0
Drift error (maybe fixed) : 0
Dropped bytes error (maybe fixed) : 0
Duplicated bytes error (maybe fixed) : 0
Inconsistency in error sectors : 0

Track 05
Filename : /Users/borgo/Desktop/RIP/05 - Didi.flac

Track gain : -6.70 dB
Peak : 0.999969
CRC32 hash (test run) : ED56EB3B
CRC32 hash : ED56EB3B
CRC32 hash (skip zero) : 157CF8C1
AccurateRip signature : BAEA2BA6
->Track not present in AccurateRip database.
Statistics
Read error : 0
Skipped (treated as error) : 0
Edge jitter error (maybe fixed) : 0
Atom jitter error (maybe fixed) : 0
Drift error (maybe fixed) : 0
Dropped bytes error (maybe fixed) : 0
Duplicated bytes error (maybe fixed) : 0
Inconsistency in error sectors : 0

Track 06
Filename : /Users/borgo/Desktop/RIP/06 - Sam And The Lady.flac

Track gain : -6.48 dB
Peak : 0.998169
CRC32 hash (test run) : 4FFC4AC6
CRC32 hash : 4FFC4AC6
CRC32 hash (skip zero) : 9669539F
AccurateRip signature : 2BE630E9
->Track not present in AccurateRip database.
Statistics
Read error : 0
Skipped (treated as error) : 0
Edge jitter error (maybe fixed) : 0
Atom jitter error (maybe fixed) : 0
Drift error (maybe fixed) : 0
Dropped bytes error (maybe fixed) : 0
Duplicated bytes error (maybe fixed) : 0
Inconsistency in error sectors : 0

Track 07
Filename : /Users/borgo/Desktop/RIP/07 - Popo.flac

Track gain : -4.69 dB
Peak : 0.999969
CRC32 hash (test run) : 9B82E3DB
CRC32 hash : 9B82E3DB
CRC32 hash (skip zero) : 8423FF3F
AccurateRip signature : BCCC2F18
->Track not present in AccurateRip database.
Statistics
Read error : 0
Skipped (treated as error) : 0
Edge jitter error (maybe fixed) : 0
Atom jitter error (maybe fixed) : 0
Drift error (maybe fixed) : 0
Dropped bytes error (maybe fixed) : 0
Duplicated bytes error (maybe fixed) : 0
Inconsistency in error sectors : 0

Track 08
Filename : /Users/borgo/Desktop/RIP/08 - Over The Rainbow.flac

Track gain : -5.17 dB
Peak : 0.887665
CRC32 hash (test run) : 4EC81E83
CRC32 hash : 4EC81E83
CRC32 hash (skip zero) : F3CE1E9B
AccurateRip signature : A74148D9
->Track not present in AccurateRip database.
Statistics
Read error : 0
Skipped (treated as error) : 0
Edge jitter error (maybe fixed) : 0
Atom jitter error (maybe fixed) : 0
Drift error (maybe fixed) : 0
Dropped bytes error (maybe fixed) : 0
Duplicated bytes error (maybe fixed) : 0
Inconsistency in error sectors : 0

Track 09
Filename : /Users/borgo/Desktop/RIP/09 - Apropos.flac

Track gain : -6.06 dB
Peak : 0.983826
CRC32 hash (test run) : 8C7EB2DF
CRC32 hash : 8C7EB2DF
CRC32 hash (skip zero) : 3F46F57E
AccurateRip signature : 09056771
->Track not present in AccurateRip database.
Statistics
Read error : 0
Skipped (treated as error) : 0
Edge jitter error (maybe fixed) : 0
Atom jitter error (maybe fixed) : 0
Drift error (maybe fixed) : 0
Dropped bytes error (maybe fixed) : 0
Duplicated bytes error (maybe fixed) : 0
Inconsistency in error sectors : 0

Track 10
Filename : /Users/borgo/Desktop/RIP/10 - Pirouette.flac

Track gain : -5.09 dB
Peak : 0.905609
CRC32 hash (test run) : AE54C438
CRC32 hash : AE54C438
CRC32 hash (skip zero) : 303D119C
AccurateRip signature : E4C4DDFB
->Track not present in AccurateRip database.
Statistics
Read error : 0
Skipped (treated as error) : 0
Edge jitter error (maybe fixed) : 0
Atom jitter error (maybe fixed) : 1
Drift error (maybe fixed) : 0
Dropped bytes error (maybe fixed) : 0
Duplicated bytes error (maybe fixed) : 0
Inconsistency in error sectors : 0

Track 11
Filename : /Users/borgo/Desktop/RIP/11 - Bunny.flac

Track gain : -4.63 dB
Peak : 0.752655
CRC32 hash (test run) : B756E997
CRC32 hash : B756E997
CRC32 hash (skip zero) : 44C79ECA
AccurateRip signature : 57FEC3E8
->Track not present in AccurateRip database.
Statistics
Read error : 0
Skipped (treated as error) : 0
Edge jitter error (maybe fixed) : 0
Atom jitter error (maybe fixed) : 0
Drift error (maybe fixed) : 0
Dropped bytes error (maybe fixed) : 0
Duplicated bytes error (maybe fixed) : 0
Inconsistency in error sectors : 0

Track 12
Filename : /Users/borgo/Desktop/RIP/12 - Powder Puff.flac

Track gain : -5.29 dB
Peak : 0.911591
CRC32 hash (test run) : FDD34E2E
CRC32 hash : FDD34E2E
CRC32 hash (skip zero) : 70452946
AccurateRip signature : 3AFA38A2
->Track not present in AccurateRip database.
Statistics
Read error : 0
Skipped (treated as error) : 0
Edge jitter error (maybe fixed) : 0
Atom jitter error (maybe fixed) : 0
Drift error (maybe fixed) : 0
Dropped bytes error (maybe fixed) : 0
Duplicated bytes error (maybe fixed) : 0
Inconsistency in error sectors : 0

Track 13
Filename : /Users/borgo/Desktop/RIP/13 - The Pesky Serpent.flac

Track gain : -5.22 dB
Peak : 0.893982
CRC32 hash (test run) : 9C53F5FD
CRC32 hash : 9C53F5FD
CRC32 hash (skip zero) : 860CDDDF
AccurateRip signature : 7B081419
->Track not present in AccurateRip database.
Statistics
Read error : 0
Skipped (treated as error) : 0
Edge jitter error (maybe fixed) : 0
Atom jitter error (maybe fixed) : 0
Drift error (maybe fixed) : 0
Dropped bytes error (maybe fixed) : 0
Duplicated bytes error (maybe fixed) : 0
Inconsistency in error sectors : 0

Track 14
Filename : /Users/borgo/Desktop/RIP/14 - Diablo's Dance.flac

Track gain : -4.08 dB
Peak : 0.973907
CRC32 hash (test run) : C0F0FD22
CRC32 hash : C0F0FD22
CRC32 hash (skip zero) : B2F99A85
AccurateRip signature : A4443E9F
->Track not present in AccurateRip database.
Statistics
Read error : 0
Skipped (treated as error) : 0
Edge jitter error (maybe fixed) : 0
Atom jitter error (maybe fixed) : 0
Drift error (maybe fixed) : 0
Dropped bytes error (maybe fixed) : 0
Duplicated bytes error (maybe fixed) : 0
Inconsistency in error sectors : 0

Track 15
Filename : /Users/borgo/Desktop/RIP/15 - Indian Club.flac

Track gain : -4.61 dB
Peak : 0.915100
CRC32 hash (test run) : EA59A5DA
CRC32 hash : EA59A5DA
CRC32 hash (skip zero) : 99B0C3B1
AccurateRip signature : DCE5E23C
->Track not present in AccurateRip database.
Statistics
Read error : 0
Skipped (treated as error) : 0
Edge jitter error (maybe fixed) : 0
Atom jitter error (maybe fixed) : 0
Drift error (maybe fixed) : 0
Dropped bytes error (maybe fixed) : 0
Duplicated bytes error (maybe fixed) : 0
Inconsistency in error sectors : 0

Track 16
Filename : /Users/borgo/Desktop/RIP/16 - Morpo.flac

Track gain : -5.62 dB
Peak : 0.948883
CRC32 hash (test run) : 97C31742
CRC32 hash : 97C31742
CRC32 hash (skip zero) : 26A5365F
AccurateRip signature : EF24656B
->Track not present in AccurateRip database.
Statistics
Read error : 0
Skipped (treated as error) : 0
Edge jitter error (maybe fixed) : 0
Atom jitter error (maybe fixed) : 0
Drift error (maybe fixed) : 0
Dropped bytes error (maybe fixed) : 0
Duplicated bytes error (maybe fixed) : 0
Inconsistency in error sectors : 0

Track 17
Filename : /Users/borgo/Desktop/RIP/17 - Mambo Del Crow.flac

Track gain : -4.21 dB
Peak : 0.872314
CRC32 hash (test run) : CF7EBF54
CRC32 hash : CF7EBF54
CRC32 hash (skip zero) : B16A37E1
AccurateRip signature : 0D3ECAFA
->Track not present in AccurateRip database.
Statistics
Read error : 0
Skipped (treated as error) : 0
Edge jitter error (maybe fixed) : 0
Atom jitter error (maybe fixed) : 0
Drift error (maybe fixed) : 0
Dropped bytes error (maybe fixed) : 0
Duplicated bytes error (maybe fixed) : 0
Inconsistency in error sectors : 0

Track 18
Filename : /Users/borgo/Desktop/RIP/18 - Coop De Graas.flac

Track gain : -5.15 dB
Peak : 0.908447
CRC32 hash (test run) : 25FFD325
CRC32 hash : 25FFD325
CRC32 hash (skip zero) : A0E6E8D2
AccurateRip signature : 0D792ADC
->Track not present in AccurateRip database.
Statistics
Read error : 0
Skipped (treated as error) : 0
Edge jitter error (maybe fixed) : 0
Atom jitter error (maybe fixed) : 0
Drift error (maybe fixed) : 0
Dropped bytes error (maybe fixed) : 0
Duplicated bytes error (maybe fixed) : 0
Inconsistency in error sectors : 0

Track 19
Filename : /Users/borgo/Desktop/RIP/19 - Infinity Promenade.flac

Track gain : -5.68 dB
Peak : 0.906799
CRC32 hash (test run) : 7F27BD8E
CRC32 hash : 7F27BD8E
CRC32 hash (skip zero) : C5DB9C19
AccurateRip signature : B19A89A7
->Track not present in AccurateRip database.
Statistics
Read error : 0
Skipped (treated as error) : 0
Edge jitter error (maybe fixed) : 0
Atom jitter error (maybe fixed) : 0
Drift error (maybe fixed) : 0
Dropped bytes error (maybe fixed) : 0
Duplicated bytes error (maybe fixed) : 0
Inconsistency in error sectors : 0

Track 20
Filename : /Users/borgo/Desktop/RIP/20 - Short Stop.flac

Track gain : -6.24 dB
Peak : 0.955078
CRC32 hash (test run) : 83E32EA0
CRC32 hash : 83E32EA0
CRC32 hash (skip zero) : 7F43B3D3
AccurateRip signature : C20BF4C2
->Track not present in AccurateRip database.
Statistics
Read error : 0
Skipped (treated as error) : 0
Edge jitter error (maybe fixed) : 0
Atom jitter error (maybe fixed) : 0
Drift error (maybe fixed) : 0
Dropped bytes error (maybe fixed) : 0
Duplicated bytes error (maybe fixed) : 0
Inconsistency in error sectors : 0

Track 21
Filename : /Users/borgo/Desktop/RIP/21 - Boar-Jibu.flac

Track gain : -4.89 dB
Peak : 0.839935
CRC32 hash (test run) : 0F60B115
CRC32 hash : 0F60B115
CRC32 hash (skip zero) : 35440F1A
AccurateRip signature : 5C9AD5C3
->Track not present in AccurateRip database.
Statistics
Read error : 0
Skipped (treated as error) : 0
Edge jitter error (maybe fixed) : 0
Atom jitter error (maybe fixed) : 0
Drift error (maybe fixed) : 0
Dropped bytes error (maybe fixed) : 0
Duplicated bytes error (maybe fixed) : 0
Inconsistency in error sectors : 0

Track 22
Filename : /Users/borgo/Desktop/RIP/22 - Contours.flac

Track gain : -5.98 dB
Peak : 0.877197
CRC32 hash (test run) : 09D5A981
CRC32 hash : 09D5A981
CRC32 hash (skip zero) : D0DD16F4
AccurateRip signature : 7344B542
->Track not present in AccurateRip database.
Statistics
Read error : 0
Skipped (treated as error) : 0
Edge jitter error (maybe fixed) : 0
Atom jitter error (maybe fixed) : 0
Drift error (maybe fixed) : 0
Dropped bytes error (maybe fixed) : 0
Duplicated bytes error (maybe fixed) : 0
Inconsistency in error sectors : 0

Track 23
Filename : /Users/borgo/Desktop/RIP/23 - Tale Of An African Lobster.flac

Track gain : -5.12 dB
Peak : 0.802277
CRC32 hash (test run) : 1CD7EB9B
CRC32 hash : 1CD7EB9B
CRC32 hash (skip zero) : 9033473B
AccurateRip signature : B5D61604
->Track not present in AccurateRip database.
Statistics
Read error : 0
Skipped (treated as error) : 0
Edge jitter error (maybe fixed) : 0
Atom jitter error (maybe fixed) : 0
Drift error (maybe fixed) : 0
Dropped bytes error (maybe fixed) : 0
Duplicated bytes error (maybe fixed) : 0
Inconsistency in error sectors : 0

Track 24
Filename : /Users/borgo/Desktop/RIP/24 - Chiquito Loco.flac

Track gain : -6.46 dB
Peak : 0.849213
CRC32 hash (test run) : A06A6925
CRC32 hash : A06A6925
CRC32 hash (skip zero) : 1F905562
AccurateRip signature : F58729D2
->Track not present in AccurateRip database.
Statistics
Read error : 0
Skipped (treated as error) : 0
Edge jitter error (maybe fixed) : 0
Atom jitter error (maybe fixed) : 0
Drift error (maybe fixed) : 0
Dropped bytes error (maybe fixed) : 0
Duplicated bytes error (maybe fixed) : 0
Inconsistency in error sectors : 0

Track 25
Filename : /Users/borgo/Desktop/RIP/25 - The Sweetheart Of Sigmund Freud.flac

Track gain : -6.63 dB
Peak : 0.906128
CRC32 hash (test run) : D9EE6257
CRC32 hash : D9EE6257
CRC32 hash (skip zero) : 3F8827E7
AccurateRip signature : 986F08A4
->Track not present in AccurateRip database.
Statistics
Read error : 0
Skipped (treated as error) : 0
Edge jitter error (maybe fixed) : 0
Atom jitter error (maybe fixed) : 0
Drift error (maybe fixed) : 0
Dropped bytes error (maybe fixed) : 0
Duplicated bytes error (maybe fixed) : 0
Inconsistency in error sectors : 0

No errors occurred

End of status report

X Lossless Decoder version 20101010 (123.3)

XLD extraction logfile from 2010-10-18 18:36:42 +0200

Shorty Rogers / West Coast Sounds - Shorty Rogers And His Orchestra, featuring the Giants 1950-1956 (Disc 2 of 2)

Used drive : TSSTcorp CD/DVDW SH-W162L (revision LC03)

Use cdparanoia mode : YES (CDParanoia III 10.2 engine)
Disable audio cache : OK for the drive with cache less than 2750KB
Make use of C2 pointers : NO
Read offset correction : 6
Max retry count : 100
Gap status : Analyzed, Appended

TOC of the extracted CD
Track | Start | Length | Start sector | End sector
––––––––––––––––––––––––––––-
1 | 00:00:00 | 03:20:00 | 0 | 14999
2 | 03:20:00 | 02:53:38 | 15000 | 28012
3 | 06:13:38 | 03:18:34 | 28013 | 42896
4 | 09:31:72 | 02:37:66 | 42897 | 54737
5 | 12:09:63 | 03:21:69 | 54738 | 69881
6 | 15:31:57 | 02:59:15 | 69882 | 83321
7 | 18:30:72 | 03:25:06 | 83322 | 98702
8 | 21:56:03 | 02:37:69 | 98703 | 110546
9 | 24:33:72 | 03:58:74 | 110547 | 128470
10 | 28:32:71 | 03:14:19 | 128471 | 143039
11 | 31:47:15 | 02:55:69 | 143040 | 156233
12 | 34:43:09 | 04:28:02 | 156234 | 176335
13 | 39:11:11 | 03:00:57 | 176336 | 189892
14 | 42:11:68 | 02:39:02 | 189893 | 201819
15 | 44:50:70 | 03:21:09 | 201820 | 216903
16 | 48:12:04 | 03:17:30 | 216904 | 231708
17 | 51:29:34 | 02:47:35 | 231709 | 244268
18 | 54:16:69 | 03:55:05 | 244269 | 261898
19 | 58:11:74 | 04:58:46 | 261899 | 284294
20 | 63:10:45 | 03:34:21 | 284295 | 300365
21 | 66:44:66 | 04:13:36 | 300366 | 319376

All Tracks
Album gain : -6.68 dB
Peak : 1.000000

Track 01
Filename : /Users/borgo/Desktop/RIP/01 - Hot Blood (The Wild One).flac
Pre-gap length : 00:02:00

Track gain : -3.37 dB
Peak : 0.698975
CRC32 hash (test run) : D691678E
CRC32 hash : D691678E
CRC32 hash (skip zero) : 80360CA2
AccurateRip signature : B6CE4FEB
->Track not present in AccurateRip database.
Statistics
Read error : 0
Skipped (treated as error) : 0
Edge jitter error (maybe fixed) : 0
Atom jitter error (maybe fixed) : 0
Drift error (maybe fixed) : 0
Dropped bytes error (maybe fixed) : 0
Duplicated bytes error (maybe fixed) : 0
Inconsistency in error sectors : 0

Track 02
Filename : /Users/borgo/Desktop/RIP/02 - Blues For Brando.flac

Track gain : -5.23 dB
Peak : 0.708008
CRC32 hash (test run) : C14B28E5
CRC32 hash : C14B28E5
CRC32 hash (skip zero) : 6BAB0505
AccurateRip signature : C6054BCE
->Track not present in AccurateRip database.
Statistics
Read error : 0
Skipped (treated as error) : 0
Edge jitter error (maybe fixed) : 0
Atom jitter error (maybe fixed) : 0
Drift error (maybe fixed) : 0
Dropped bytes error (maybe fixed) : 0
Duplicated bytes error (maybe fixed) : 0
Inconsistency in error sectors : 0

Track 03
Filename : /Users/borgo/Desktop/RIP/03 - Windswept.flac

Track gain : -2.06 dB
Peak : 0.681641
CRC32 hash (test run) : BCC2E58B
CRC32 hash : BCC2E58B
CRC32 hash (skip zero) : FCC84B25
AccurateRip signature : ED736935
->Track not present in AccurateRip database.
Statistics
Read error : 0
Skipped (treated as error) : 0
Edge jitter error (maybe fixed) : 0
Atom jitter error (maybe fixed) : 0
Drift error (maybe fixed) : 0
Dropped bytes error (maybe fixed) : 0
Duplicated bytes error (maybe fixed) : 0
Inconsistency in error sectors : 0

Track 04
Filename : /Users/borgo/Desktop/RIP/04 - Chino.flac

Track gain : -1.59 dB
Peak : 0.677216
CRC32 hash (test run) : 78232BC8
CRC32 hash : 78232BC8
CRC32 hash (skip zero) : E397CE97
AccurateRip signature : 3B51EC81
->Track not present in AccurateRip database.
Statistics
Read error : 0
Skipped (treated as error) : 0
Edge jitter error (maybe fixed) : 0
Atom jitter error (maybe fixed) : 0
Drift error (maybe fixed) : 0
Dropped bytes error (maybe fixed) : 0
Duplicated bytes error (maybe fixed) : 0
Inconsistency in error sectors : 0

Track 05
Filename : /Users/borgo/Desktop/RIP/05 - Topsy.flac

Track gain : -4.88 dB
Peak : 0.975159
CRC32 hash (test run) : C89F183B
CRC32 hash : C89F183B
CRC32 hash (skip zero) : 0B8A98FD
AccurateRip signature : 3499973C
->Track not present in AccurateRip database.
Statistics
Read error : 0
Skipped (treated as error) : 0
Edge jitter error (maybe fixed) : 0
Atom jitter error (maybe fixed) : 0
Drift error (maybe fixed) : 0
Dropped bytes error (maybe fixed) : 0
Duplicated bytes error (maybe fixed) : 0
Inconsistency in error sectors : 0

Track 06
Filename : /Users/borgo/Desktop/RIP/06 - It's Sand, Man.flac

Track gain : -5.38 dB
Peak : 0.951904
CRC32 hash (test run) : EFE1D268
CRC32 hash : EFE1D268
CRC32 hash (skip zero) : 40CDBD3B
AccurateRip signature : A787E2F6
->Track not present in AccurateRip database.
Statistics
Read error : 0
Skipped (treated as error) : 0
Edge jitter error (maybe fixed) : 0
Atom jitter error (maybe fixed) : 0
Drift error (maybe fixed) : 0
Dropped bytes error (maybe fixed) : 0
Duplicated bytes error (maybe fixed) : 0
Inconsistency in error sectors : 0

Track 07
Filename : /Users/borgo/Desktop/RIP/07 - Basie Eyes.flac

Track gain : -5.48 dB
Peak : 0.987518
CRC32 hash (test run) : 38AC1449
CRC32 hash : 38AC1449
CRC32 hash (skip zero) : 3C704F30
AccurateRip signature : 459B610C
->Track not present in AccurateRip database.
Statistics
Read error : 0
Skipped (treated as error) : 0
Edge jitter error (maybe fixed) : 0
Atom jitter error (maybe fixed) : 0
Drift error (maybe fixed) : 0
Dropped bytes error (maybe fixed) : 0
Duplicated bytes error (maybe fixed) : 0
Inconsistency in error sectors : 0

Track 08
Filename : /Users/borgo/Desktop/RIP/08 - Doggin' Around.flac

Track gain : -6.45 dB
Peak : 0.999969
CRC32 hash (test run) : A8C8072E
CRC32 hash : A8C8072E
CRC32 hash (skip zero) : 51A46555
AccurateRip signature : 03A38CB9
->Track not present in AccurateRip database.
Statistics
Read error : 0
Skipped (treated as error) : 0
Edge jitter error (maybe fixed) : 0
Atom jitter error (maybe fixed) : 0
Drift error (maybe fixed) : 0
Dropped bytes error (maybe fixed) : 0
Duplicated bytes error (maybe fixed) : 0
Inconsistency in error sectors : 0

Track 09
Filename : /Users/borgo/Desktop/RIP/09 - Jump For Me.flac

Track gain : -7.46 dB
Peak : 0.984497
CRC32 hash (test run) : 6CF4BA64
CRC32 hash : 6CF4BA64
CRC32 hash (skip zero) : 6E32ABC9
AccurateRip signature : A8492955
->Track not present in AccurateRip database.
Statistics
Read error : 0
Skipped (treated as error) : 0
Edge jitter error (maybe fixed) : 0
Atom jitter error (maybe fixed) : 0
Drift error (maybe fixed) : 0
Dropped bytes error (maybe fixed) : 0
Duplicated bytes error (maybe fixed) : 0
Inconsistency in error sectors : 0

Track 10
Filename : /Users/borgo/Desktop/RIP/10 - Over aAnd Out.flac

Track gain : -6.70 dB
Peak : 1.000000
CRC32 hash (test run) : D77F5A2D
CRC32 hash : D77F5A2D
CRC32 hash (skip zero) : 8276951D
AccurateRip signature : EBEC7F99
->Track not present in AccurateRip database.
Statistics
Read error : 0
Skipped (treated as error) : 0
Edge jitter error (maybe fixed) : 0
Atom jitter error (maybe fixed) : 0
Drift error (maybe fixed) : 0
Dropped bytes error (maybe fixed) : 0
Duplicated bytes error (maybe fixed) : 0
Inconsistency in error sectors : 0

Track 11
Filename : /Users/borgo/Desktop/RIP/11 - Down For Double.flac

Track gain : -6.61 dB
Peak : 0.836853
CRC32 hash (test run) : 70638649
CRC32 hash : 70638649
CRC32 hash (skip zero) : DF0C8B42
AccurateRip signature : 38004258
->Track not present in AccurateRip database.
Statistics
Read error : 0
Skipped (treated as error) : 0
Edge jitter error (maybe fixed) : 0
Atom jitter error (maybe fixed) : 0
Drift error (maybe fixed) : 0
Dropped bytes error (maybe fixed) : 0
Duplicated bytes error (maybe fixed) : 0
Inconsistency in error sectors : 0

Track 12
Filename : /Users/borgo/Desktop/RIP/12 - Swingin' The Blues.flac

Track gain : -2.75 dB
Peak : 0.862885
CRC32 hash (test run) : 9EF36F4E
CRC32 hash : 9EF36F4E
CRC32 hash (skip zero) : D733DA15
AccurateRip signature : 49CDD93B
->Track not present in AccurateRip database.
Statistics
Read error : 0
Skipped (treated as error) : 0
Edge jitter error (maybe fixed) : 0
Atom jitter error (maybe fixed) : 0
Drift error (maybe fixed) : 0
Dropped bytes error (maybe fixed) : 0
Duplicated bytes error (maybe fixed) : 0
Inconsistency in error sectors : 0

Track 13
Filename : /Users/borgo/Desktop/RIP/13 - H & J.flac

Track gain : -6.43 dB
Peak : 0.872498
CRC32 hash (test run) : AF5A0C2D
CRC32 hash : AF5A0C2D
CRC32 hash (skip zero) : 40A5B3D1
AccurateRip signature : DF0D6910
->Track not present in AccurateRip database.
Statistics
Read error : 0
Skipped (treated as error) : 0
Edge jitter error (maybe fixed) : 0
Atom jitter error (maybe fixed) : 0
Drift error (maybe fixed) : 0
Dropped bytes error (maybe fixed) : 0
Duplicated bytes error (maybe fixed) : 0
Inconsistency in error sectors : 0

Track 14
Filename : /Users/borgo/Desktop/RIP/14 - Tickletoe.flac

Track gain : -7.04 dB
Peak : 1.000000
CRC32 hash (test run) : 5E00D4FE
CRC32 hash : 5E00D4FE
CRC32 hash (skip zero) : 3316FD30
AccurateRip signature : 8429EB61
->Track not present in AccurateRip database.
Statistics
Read error : 0
Skipped (treated as error) : 0
Edge jitter error (maybe fixed) : 0
Atom jitter error (maybe fixed) : 0
Drift error (maybe fixed) : 0
Dropped bytes error (maybe fixed) : 0
Duplicated bytes error (maybe fixed) : 0
Inconsistency in error sectors : 0

Track 15
Filename : /Users/borgo/Desktop/RIP/15 - Taps Miller.flac

Track gain : -6.91 dB
Peak : 1.000000
CRC32 hash (test run) : 5FB988FE
CRC32 hash : 5FB988FE
CRC32 hash (skip zero) : FE7BB75E
AccurateRip signature : AD631867
->Track not present in AccurateRip database.
Statistics
Read error : 0
Skipped (treated as error) : 0
Edge jitter error (maybe fixed) : 0
Atom jitter error (maybe fixed) : 0
Drift error (maybe fixed) : 0
Dropped bytes error (maybe fixed) : 0
Duplicated bytes error (maybe fixed) : 0
Inconsistency in error sectors : 0

Track 16
Filename : /Users/borgo/Desktop/RIP/16 - Walk, Don't Run.flac

Track gain : -6.37 dB
Peak : 1.000000
CRC32 hash (test run) : 28E8DEC5
CRC32 hash : 28E8DEC5
CRC32 hash (skip zero) : 8A909038
AccurateRip signature : D1193A54
->Track not present in AccurateRip database.
Statistics
Read error : 0
Skipped (treated as error) : 0
Edge jitter error (maybe fixed) : 0
Atom jitter error (maybe fixed) : 0
Drift error (maybe fixed) : 0
Dropped bytes error (maybe fixed) : 0
Duplicated bytes error (maybe fixed) : 0
Inconsistency in error sectors : 0

Track 17
Filename : /Users/borgo/Desktop/RIP/17 - Audition.flac

Track gain : -8.69 dB
Peak : 0.910614
CRC32 hash (test run) : D388883C
CRC32 hash : D388883C
CRC32 hash (skip zero) : 10840E21
AccurateRip signature : 5B29F0CB
->Track not present in AccurateRip database.
Statistics
Read error : 0
Skipped (treated as error) : 0
Edge jitter error (maybe fixed) : 0
Atom jitter error (maybe fixed) : 0
Drift error (maybe fixed) : 0
Dropped bytes error (maybe fixed) : 0
Duplicated bytes error (maybe fixed) : 0
Inconsistency in error sectors : 0

Track 18
Filename : /Users/borgo/Desktop/RIP/18 - Pay The Piper.flac

Track gain : -7.58 dB
Peak : 0.982880
CRC32 hash (test run) : F4530293
CRC32 hash : F4530293
CRC32 hash (skip zero) : 49084022
AccurateRip signature : A48DD85F
->Track not present in AccurateRip database.
Statistics
Read error : 0
Skipped (treated as error) : 0
Edge jitter error (maybe fixed) : 0
Atom jitter error (maybe fixed) : 0
Drift error (maybe fixed) : 0
Dropped bytes error (maybe fixed) : 0
Duplicated bytes error (maybe fixed) : 0
Inconsistency in error sectors : 0

Track 19
Filename : /Users/borgo/Desktop/RIP/19 - At Home With Sweets.flac

Track gain : -6.74 dB
Peak : 0.969543
CRC32 hash (test run) : 103DA0CA
CRC32 hash : 103DA0CA
CRC32 hash (skip zero) : 921B2C69
AccurateRip signature : C64CB6DF
->Track not present in AccurateRip database.
Statistics
Read error : 0
Skipped (treated as error) : 0
Edge jitter error (maybe fixed) : 0
Atom jitter error (maybe fixed) : 0
Drift error (maybe fixed) : 0
Dropped bytes error (maybe fixed) : 0
Duplicated bytes error (maybe fixed) : 0
Inconsistency in error sectors : 0

Track 20
Filename : /Users/borgo/Desktop/RIP/20 - Pink Squirrel.flac

Track gain : -7.66 dB
Peak : 0.999969
CRC32 hash (test run) : 144250EB
CRC32 hash : 144250EB
CRC32 hash (skip zero) : 8E983A7D
AccurateRip signature : 83391016
->Track not present in AccurateRip database.
Statistics
Read error : 0
Skipped (treated as error) : 0
Edge jitter error (maybe fixed) : 0
Atom jitter error (maybe fixed) : 0
Drift error (maybe fixed) : 0
Dropped bytes error (maybe fixed) : 0
Duplicated bytes error (maybe fixed) : 0
Inconsistency in error sectors : 0

Track 21
Filename : /Users/borgo/Desktop/RIP/21 - Blues Express.flac

Track gain : -6.64 dB
Peak : 0.942078
CRC32 hash (test run) : 6E69A91A
CRC32 hash : 6E69A91A
CRC32 hash (skip zero) : 96971734
AccurateRip signature : E328B76A
->Track not present in AccurateRip database.
Statistics
Read error : 0
Skipped (treated as error) : 0
Edge jitter error (maybe fixed) : 0
Atom jitter error (maybe fixed) : 0
Drift error (maybe fixed) : 0
Dropped bytes error (maybe fixed) : 0
Duplicated bytes error (maybe fixed) : 0
Inconsistency in error sectors : 0

No errors occurred

End of status report


Shorty Rogers And His Orchestra - West Coast Sound, featuring The Giants 1950-1956 [2CD] {2006 Fresh Sound} [repost]


All thanks goes to the original releaser!