Subcategories

Sky d'Or - Inner Music

Posted By: FLESH
Sky d'Or - Inner Music

Sky d'Or - Inner Music
Electronic, Downtempo, Future Jazz
WV+cue+log (Playable ZIP) | 426.3 Mb | MP3, 190 Kbps (V2 VBR) | 80.8 Mb | Covers inside
Label: Mole Listening Pearls | Catalog#: molesp003-2 | Released: 28.08.2009

Tracklisting:
01. Moving On 4:05
02. Calor 4:17
03. Engiadina 5:19
04. Into The Sun 5:00
05. Dance With Me 4:10
06. Soul Connection 3:58
07. The World 4:49
08. Heavenly 4:24
09. Inner Music 4:27
10. Dos Amigos 3:43
11. Ibizarre 4:50
12. Break Away 4:10
13. Magical Memories 5:13
14. Time & Place 4:38
15. Len & Jay 4:05

Exact Audio Copy V0.99 prebeta 4 from 23. January 2008

EAC extraction logfile from 18. December 2009, 11:34

Sky d'Or / Inner Music

Used drive : PIONEER DVD-RW DVR-112D Adapter: 1 ID: 0

Read mode : Secure
Utilize accurate stream : Yes
Defeat audio cache : Yes
Make use of C2 pointers : No

Read offset correction : 48
Overread into Lead-In and Lead-Out : No
Fill up missing offset samples with silence : Yes
Delete leading and trailing silent blocks : No
Null samples used in CRC calculations : Yes
Used interface : Installed external ASPI interface

Used output format : User Defined Encoder
Selected bitrate : 192 kBit/s
Quality : Low
Add ID3 tag : Yes
Command line compressor : C:\Program Files\E A C Audio\Flac\flac.exe
Additional command line options : -V -8 -T "artist=%a" -T "title=%t" -T "album=%g" -T "date=%y" -T "tracknumber=%n" -T "genre=%m" %s


TOC of the extracted CD

Track | Start | Length | Start sector | End sector
––––––––––––––––––––––––––––-
1 | 0:00.00 | 4:04.46 | 0 | 18345
2 | 4:04.46 | 4:17.13 | 18346 | 37633
3 | 8:21.59 | 5:19.14 | 37634 | 61572
4 | 13:40.73 | 5:00.29 | 61573 | 84101
5 | 18:41.27 | 4:10.22 | 84102 | 102873
6 | 22:51.49 | 3:57.57 | 102874 | 120705
7 | 26:49.31 | 4:49.00 | 120706 | 142380
8 | 31:38.31 | 4:24.00 | 142381 | 162180
9 | 36:02.31 | 4:27.13 | 162181 | 182218
10 | 40:29.44 | 3:43.24 | 182219 | 198967
11 | 44:12.68 | 4:49.47 | 198968 | 220689
12 | 49:02.40 | 4:09.40 | 220690 | 239404
13 | 53:12.05 | 5:12.53 | 239405 | 262857
14 | 58:24.58 | 4:37.57 | 262858 | 283689
15 | 63:02.40 | 4:04.66 | 283690 | 302055


Range status and errors

Selected range

Filename G:\_Sky d'Or - Inner Music\Sky d'Or - Inner Music.wav

Peak level 100.0 %
Range quality 100.0 %
Test CRC 6F1D7052
Copy CRC 6F1D7052
Copy OK

No errors occurred


AccurateRip summary

Track 1 not present in database
Track 2 not present in database
Track 3 not present in database
Track 4 not present in database
Track 5 not present in database
Track 6 not present in database
Track 7 not present in database
Track 8 not present in database
Track 9 not present in database
Track 10 not present in database
Track 11 not present in database
Track 12 not present in database
Track 13 not present in database
Track 14 not present in database
Track 15 not present in database

None of the tracks are present in the AccurateRip database

End of status report