Subcategories

Skybombers - Take Me To Town [BMG Japan BVCP-24140] {2008 - japanese pressing} (Reuploaded)

Posted By: luckburz
Skybombers - Take Me To Town [BMG Japan BVCP-24140] {2008 - japanese pressing} (Reuploaded)

Skybombers - Take Me To Town
EAC+LOG+CUE | FLAC: 435 MB | Full Artwork | 5% Recovery Info
Label/Cat#: BMG Japan # BVCP-24140 | Country/Year: Japan 2008
Genre: Rock | Style: Alternative, Garage Rock

MD5 [X] CUE [X] LOG [X] INFO TEXT [X] ARTWORK [X]

selfrip [X] not my rip []

Exact Audio Copy V0.99 prebeta 4 from 23. January 2008

EAC extraction logfile from 16. July 2009, 19:44

Skybombers / Take Me To Town (BMG Japan BVCP-24140)

Used drive : HL-DT-STDVDRAM GSA-H12L Adapter: 0 ID: 1

Read mode : Secure
Utilize accurate stream : Yes
Defeat audio cache : No
Make use of C2 pointers : No

Read offset correction : 667
Overread into Lead-In and Lead-Out : No
Fill up missing offset samples with silence : Yes
Delete leading and trailing silent blocks : No
Null samples used in CRC calculations : Yes
Used interface : Native Win32 interface for Win NT & 2000

Used output format : User Defined Encoder
Selected bitrate : 1024 kBit/s
Quality : High
Add ID3 tag : Yes
Command line compressor : C:\Programme\FLAC\flac.exe
Additional command line options : -8 -T "Artist=%a" -T "Title=%t" -T "Album=%g" -T "Date=%y" -T "Tracknumber=%n" -T "Genre=%m" %s -o %d


TOC of the extracted CD

Track | Start | Length | Start sector | End sector
––––––––––––––––––––––––––––-
1 | 0:00.00 | 2:04.69 | 0 | 9368
2 | 2:04.69 | 2:40.51 | 9369 | 21419
3 | 4:45.45 | 3:15.03 | 21420 | 36047
4 | 8:00.48 | 3:43.43 | 36048 | 52815
5 | 11:44.16 | 3:14.50 | 52816 | 67415
6 | 14:58.66 | 3:04.03 | 67416 | 81218
7 | 18:02.69 | 3:00.38 | 81219 | 94756
8 | 21:03.32 | 2:37.66 | 94757 | 106597
9 | 23:41.23 | 3:16.31 | 106598 | 121328
10 | 26:57.54 | 2:57.55 | 121329 | 134658
11 | 29:55.34 | 2:24.63 | 134659 | 145521
12 | 32:20.22 | 2:43.50 | 145522 | 157796
13 | 35:03.72 | 3:18.04 | 157797 | 172650


Range status and errors

Selected range

Filename V:\INCOMING\LOSSLESS\ZZZ-EAC\Skybombers - Take Me To Town (BMG Japan BVCP-24140).wav

Peak level 100.0 %
Range quality 100.0 %
Copy CRC 3440FC68
Copy OK

No errors occurred


AccurateRip summary

Track 1 not present in database
Track 2 not present in database
Track 3 not present in database
Track 4 not present in database
Track 5 not present in database
Track 6 not present in database
Track 7 not present in database
Track 8 not present in database
Track 9 not present in database
Track 10 not present in database
Track 11 not present in database
Track 12 not present in database
Track 13 not present in database

None of the tracks are present in the AccurateRip database

End of status report

foobar2000 1.1.14a / Dynamic Range Meter 1.1.1
log date: 2013-01-28 18:27:04

––––––––––––––––––––––––––––––––––––––––
Analyzed: Skybombers / Take Me To Town (BMG Japan BVCP-24140)
––––––––––––––––––––––––––––––––––––––––

DR Peak RMS Duration Track
––––––––––––––––––––––––––––––––––––––––
DR5 0.00 dB -5.88 dB 2:05 01-On + On
DR5 0.00 dB -6.02 dB 2:41 02-Always Complaining
DR5 0.00 dB -5.82 dB 3:15 03-It Goes Off
DR4 0.00 dB -6.36 dB 3:44 04-If You Want To Be The One
DR6 -0.07 dB -8.63 dB 3:15 05-My Morning´s Gone
DR4 0.00 dB -5.48 dB 3:04 06-Time, Money And Me
DR5 0.00 dB -5.90 dB 3:01 07-1,2,4 To The Floor
DR5 0.00 dB -5.42 dB 2:38 08-Keys To The City
DR5 -0.01 dB -6.27 dB 3:16 09-Teenage Dreams
DR7 -0.03 dB -9.84 dB 2:58 10-Eleanor´s Lullaby
DR5 0.00 dB -6.11 dB 2:25 11-6 A.M.
DR5 0.00 dB -5.67 dB 2:44 12-Reason To Live
DR5 0.00 dB -6.26 dB 3:18 13-Young Love
––––––––––––––––––––––––––––––––––––––––

Number of tracks: 13
Official DR value: DR5

Samplerate: 44100 Hz
Channels: 2
Bits per sample: 16
Bitrate: 1016 kbps
Codec: FLAC
================================================================================



CD Info:

Skybombers - Take Me To Town

Label: BMG (Japan), Albert Productions
Catalog#: BVCP-24140, 88697-35050-2
Format: CD, Album, Promo
Country: Japan
Released: 24 Sep 2008
Genre: Rock
Style: Punk
Notes: Japanese version includes one bonus track.

Tracklisting:
1 On + On
2 Always Complaining
3 It Goes Off
4 If You Want To Be The One
5 My Morning´s Gone
6 Time, Money And Me
7 1,2,4 To The Floor
8 Keys To The City
9 Teenage Dreams
10 Eleanor´s Lullaby
11 6 A.M.
12 Reason To Live
Japanese Bonus Track:
13 Young Love

Skybombers - Take Me To Town [BMG Japan BVCP-24140] {2008 - japanese pressing} (Reuploaded)


review by Jack Rabid

Barely out of high school, these Melbourne 'bombers are truly airborne. Unlike so many fast-paced, hard-rockin', wild, high-energy Aussies, they've garnered notice in the U.S. despite the 20-hour plane ride: their hot, 2006 digital debut EP Sirens led to airplay on L.A. staple Indie 103, and then to similar love from Little Steven's syndicated radio/satellite garage roundup. Listen to "On + On," "Always Complaining," and "It Goes Off" leading off this first LP, and you'll swear an old dog named "kick-ass, big-guitar, super melodic, punky, heavy power pop" has become a puppy – the kind that jumps all over you despite protestations. Leader Hugh Gurney has a deep-throaty voice you wish more had, and his three mates match him for supercharged pulse, hot-button grooves, and that old, lost art: backbeat. Outside of one iffy, oddball anomaly Beatles/Stones-referencing, Oasis-y song called "Eleanor's Lullaby," Skybombers don't sound like anyone (closest: Idlewild!), but you hear hints of 1966 Who/the Move, plus a swatch of Aussie history from Radio Birdman to first LP Hoodoo Gurus to You Am I (and the first power chord reminds of Stiff Little Fingers' "Wasted Life"). Yep, this is a nation – a continent! – that's turned out a few hundred such smokin', roarin' outfits since the Saints showed the way circa 1975, and Skybombers are just the latest largess of such a lush gusher. But damned if they don't stand up to long lineage; e.g., you'll see why X (the U.S. one, not the old Aussie one) hired them as tour openers. Don't miss.
Skybombers - Take Me To Town [BMG Japan BVCP-24140] {2008 - japanese pressing} (Reuploaded)
allmusic

Skybombers - Take Me To Town [BMG Japan BVCP-24140] {2008 - japanese pressing} (Reuploaded)

// classical music \\
// all of my uploads \\
________________

Download:

Filepost FLAC
Filepost Artwork
________________