Subcategories

Bedrich Smetana - Má Vlast (Kubelik, 1990 recording)

Posted By: wursthans
Bedrich Smetana - Má Vlast (Kubelik, 1990 recording)

Bedrich Smetana - Ma Vlast (1990)
Genre: Symphonic Poem | 1 CD | EAC & FLAC (CUE+LOG) | Complete Covers & PDF | 430 MB
1990 recording & 2002 release | Publisher: Supraphon SU 11 1208-2 031
RapidShare


Works/Tracks

1. (00:15:46) Vysehrad
2. (00:11:42) Vltava
3. (00:09:46) Sárka
4. (00:13:15) Z ceských luhu a haju
5. (00:12:59) Tábor
6. (00:14:15) Blaník


Performers

Ceska filharmonie & Rafael Kubelik

Exact Audio Copy V0.99 prebeta 5 from 4. May 2009

EAC extraction logfile from 18. May 2009, 20:28

Ceska filharmonie & Rafael Kubelik / Bedrich Smetana - Ma Vlast (Supraphon SU 11 1208-2 031)

Used drive : PLEXTOR CD-R PREMIUM2 Adapter: 3 ID: 0

Read mode : Secure
Utilize accurate stream : Yes
Defeat audio cache : Yes
Make use of C2 pointers : No

Read offset correction : 30
Overread into Lead-In and Lead-Out : Yes
Fill up missing offset samples with silence : Yes
Delete leading and trailing silent blocks : No
Null samples used in CRC calculations : Yes
Used interface : Native Win32 interface for Win NT & 2000
Gap handling : Appended to previous track

Used output format : User Defined Encoder
Selected bitrate : 128 kBit/s
Quality : High
Add ID3 tag : No
Command line compressor : D:\Programme\EAC099\Flac\flac.exe
Additional command line options : -5 -V -T "ARTIST=%a" -T "TITLE=%t" -T "ALBUM=%g" -T "DATE=%y" -T "TRACKNUMBER=%n" -T "TOTALTRACKS=%x" -T "GENRE=%m" -T "ALBUM ARTIST=%v" -T "ALBUMARTIST=%v" -T "COMMENT=EAC V0.99 prebeta 5, Secure Mode, Test & Copy, Accurat


TOC of the extracted CD

Track | Start | Length | Start sector | End sector
––––––––––––––––––––––––––––-
1 | 0:00.33 | 15:46.35 | 33 | 71017
2 | 15:46.68 | 11:42.35 | 71018 | 123702
3 | 27:29.28 | 9:46.27 | 123703 | 167679
4 | 37:15.55 | 13:15.08 | 167680 | 227312
5 | 50:30.63 | 12:58.60 | 227313 | 285722
6 | 63:29.48 | 14:15.15 | 285723 | 349862


Track 1

Filename E:\Bedrich Smetana - Ma Vlast (2002) [FLAC] {Kubelik 1990 recording}\01 - Vysehrad.wav

Pre-gap length 0:00:02.44

Peak level 94.6 %
Track quality 100.0 %
Test CRC D02CEDCC
Copy CRC D02CEDCC
Accurately ripped (confidence 8) [6B17645F]
Copy OK

Track 2

Filename E:\Bedrich Smetana - Ma Vlast (2002) [FLAC] {Kubelik 1990 recording}\02 - Vltava.wav

Pre-gap length 0:00:06.24

Peak level 94.6 %
Track quality 100.0 %
Test CRC 0070EC4E
Copy CRC 0070EC4E
Accurately ripped (confidence 8) [282047EF]
Copy OK

Track 3

Filename E:\Bedrich Smetana - Ma Vlast (2002) [FLAC] {Kubelik 1990 recording}\03 - Sarka.wav

Pre-gap length 0:00:07.26

Peak level 94.6 %
Track quality 100.0 %
Test CRC 20B287D6
Copy CRC 20B287D6
Accurately ripped (confidence 8) [D4022CA8]
Copy OK

Track 4

Filename E:\Bedrich Smetana - Ma Vlast (2002) [FLAC] {Kubelik 1990 recording}\04 - Z ceskych luhu a haju.wav

Pre-gap length 0:00:02.73

Peak level 94.6 %
Track quality 100.0 %
Test CRC EC402364
Copy CRC EC402364
Accurately ripped (confidence 8) [5B58386C]
Copy OK

Track 5

Filename E:\Bedrich Smetana - Ma Vlast (2002) [FLAC] {Kubelik 1990 recording}\05 - Tabor.wav

Pre-gap length 0:00:05.10

Peak level 94.6 %
Track quality 100.0 %
Test CRC 94E37F48
Copy CRC 94E37F48
Accurately ripped (confidence 8) [E345AE37]
Copy OK

Track 6

Filename E:\Bedrich Smetana - Ma Vlast (2002) [FLAC] {Kubelik 1990 recording}\06 - Blanik.wav

Peak level 94.6 %
Track quality 100.0 %
Test CRC 86554196
Copy CRC 86554196
Accurately ripped (confidence 8) [61436B36]
Copy OK


All tracks accurately ripped

No errors occurred

End of status report


Recording Information

recorded May 12, 1990
released 2000 (this CD)

Supraphon
SU 11 1208-2 031


Reviews

For most of Czech conductors, Smetana "My country" might be regarded a sort of "Ithaca" or "the alpha and omega" in what concerns its final purpose. This work surpasses its own limits due it's impregnated of a sort of mythic structure. It's a score that contains - if I may - the second Czech Hymn (The Moldavia) as well as pages of historical significance and vibrant epic episodes.
Perhaps the same feelings (although keeping a certain distance) it could be said about Jean Sibelius' "Finland", Edward Elgar's "Enigma variations" or "Pomp and circumstance" , Villalobos' "Brazilian Bachianas", Yves `s "Fourth of July Symphony" or Respighi's "The fountains of Rome."
But the certain of the case is that if it's true that the posthumous version of Kubelik possesses a visible taste of final testament, the end of the voyage, the last farewell of his birthplace. So we are talking a true and unique (as far as I know) musical document in which the poetic expression surpasses by far the frontiers of the same score.
The powerful emotional sentiment (not sentimentalism) has nothing to do for instance, with the igneous and epic version of Talich's 1955 performance, and far from being a mere comparison, it's rather the best evidence this Smetana's musical bequeath was made thinking about the posterity as the most eloquent proof love for his beloved country.
A priceless musical document.! Hiram Gomez Pardo on amazon.com

I know this is already available here: http://www.avaxhome.ws/music/classical/smetana-mavlast-kubelik.html however that one didn't have log & cue, which in the case of this disc is essential, because it has pre-emphasis. If you burn it to cd, only use EAC, because other burning programmes are not able to compute the PRE Flag in the cue-sheet. Enjoy.

PASSWORD:

m@v|@st

Download

Rapidshare