Subcategories

Society for New Music Ensemble - American Masters for the 21st Century (2005)

Posted By: delpotro
Society for New Music Ensemble - American Masters for the 21st Century (2005)

Society for New Music Ensemble - American Masters for the 21st Century (2005)
EAC Rip | FLAC (tracks+log+.cue) | 06:15:59 | 1,34 Gb
Classical | Label: Innova

Say you start a group called the Society for New Music, commission composer-stars-in-the-making and do it for thirty years straight, you might expect your scrapbooks to be quite interesting. What you might not realize is that your efforts now constitute a major segment of the backbone of contemporary American concert music and you have premiered a boatload of chamber works by composers who have gone on to distinguished careers. Such is the case with Syracuse’s Society for New Music founded by Neva Pilgrim, who opened their treasure chest of commissioned works from 1972 – 2002 and has put them together as the 5-CD set entitled “American Masters for the 21st Century.”

Although this is a retrospective collection, the names included show the enduring nature and current relevance of the top-quality work. The most common words in the composers’ bios are “Pulitzer,” “Guggenheim,” and “Koussevitsky.” East Coast zip codes are well represented. Some artists include Christopher Rouse, Steven Stucky, Augusta Read Thomas, Daniel Godfrey, Howard Boatwright, Brian Israel, and Richard Wernick. Of course, the performers are New York’s finest. If you have a long winter evening ahead of you or just want some one-stop shopping for some of the best music you might have missed over the last three decades, check out this set.
Tracklist:
CD1
1. Sappho Fragments by Steven Edward Stucky
Performer: George Macero (Cello), Neva Pilgrim (), Brian Israel (Piano),
James Krehbiel (Violin), John Oberbrunner (Flute), Laurance Luttinger (Percussion),
Barbara Rabin (Clarinet)
Conductor: Calvin Custer
Period: 20th Century
Written: 1982; USA
Length: 12 Minutes 44 Secs.
2. String Quartet No. 2 ("Music for the Next to Die") by Brian Israel
Performer: Marywynn Kuwashima (Viola), George Macero (Cello), James Krehbiel (Violin),
Catherine Bush (Violin)
Period: Contemporary
Written: 1976
Length: 34 Minutes 29 Secs.
3. My Aunt Gives Me a Clarinet Lesson, for soprano & ensemble by Elizabeth Alexander
Performer: David Abrams (Clarinet), Kevin Moore (Piano), Jennifer Vacanti (Percussion),
Neva Pilgrim (), Selma Moore (Flute), Greg Wood (Cello),
Selma Moore (Piccolo), Cristina Buciu (Violin)
Conductor: Mark Scatterday
Written: 2001
Length: 10 Minutes 58 Secs.
4. Riff, Variations on a Gershwin Tune (or Two), for flute, clarinet, violin, cello, piano & percussion by Robert Keefe
Performer: Steven Heyman (Piano), George Macero (Cello), David Abrams (Clarinet),
James Krehbiel (Violin), John Oberbrunner (Flute), Robert Bridge (Percussion)
Conductor: Grant Cooper
Written: 1998
Length: 14 Minutes 32 Secs.

CD2
5. The Surma Ritornelli, for chamber ensemble by Christopher Rouse
Performer: Laurance Luttinger (Percussion), Allie Jensen (Viola), Michael Salmirs (Piano),
Linda Greene (Flute), Linda Case (Violin), Jennifer Widom (Trumpet),
Gordon Stout (Percussion), Ruth Berry (Cello), Alexander Aiken (Trombone),
Jane Swerneman (Horn), Barbara Rabin (Clarinet)
Conductor: Edward Murray
Period: Contemporary
Written: 1983
Length: 12 Minutes 59 Secs.
6. Carmina Amoris, for soprano, clarinet, viola & piano by Robert Palmer
Performer: Barbara Rabin (Clarinet), Brian Israel (Piano), Neva Pilgrim (),
Marywynn Kuwashima (Viola)
Period: Contemporary
Written: 1978
Length: 8 Minutes 26 Secs.
7. Arioso, for cello & piano by Earl George
Performer: Steven Heyman (Piano), George Macero (Cello)
Written: 1949
Length: 5 Minutes 41 Secs.
8. Scrimshaw, for flute & violin by Daniel S. Godfrey
Performer: Martin Wulfhorst (Violin), Linda Greene (Flute)
Period: Contemporary
Written: 1985
Length: 8 Minutes 56 Secs.
9. Festoons, for piano by Daniel S. Godfrey
Performer: Steven Heyman (Piano)
Period: Contemporary
Written: 1995
Length: 4 Minutes 46 Secs.
10. Partita VI, for stirng quartet by Joseph Downing
Performer: Vladimir Pritsker (Violin), Kit Dodd (Viola), Michael Bosetti (Violin),
George Macero (Cello)
Written: 1989
Length: 15 Minutes 0 Secs.
11. Etudes (3) for piano by Malcolm Lewis
Performer: Sar Shalom Strong (Piano)
Period: Contemporary
Written: 2001
Length: 9 Minutes 0 Secs.
12. Dancing with the Devil, for flute, clarinet, violin, cello, piano & percussion by Dana Wilson
Performer: David Abrams (Clarinet), Robert Bridge (Percussion), Linda Greene (Flute),
Steven Heyman (Piano), James Krehbiel (Violin), George Macero (Cello)
Conductor: Grant Cooper
Period: Contemporary
Written: 1997
Length: 9 Minutes 42 Secs.

CD3
13. Sextet, for flute, clarinet, violin, viola, cello & piano by Melinda Wagner
Performer: Vladimir Pritsker (Violin), Kit Dodd (Viola), Linda Greene (Flute),
Steven Heyman (Piano), George Macero (Cello), Barbara Rabin (Clarinet)
Conductor: Daniel S. Godfrey
Period: Modern
Written: 1989
Length: 12 Minutes 28 Secs.
14. From the Grotte des Combarelles, for piano trio by Harris Lindenfeld
Performer: Vladimir Pritsker (Violin), Steven Heyman (Piano), George Macero (Cello)
Period: Modern
Written: 1978
Length: 9 Minutes 22 Secs.
15. Sonatas in Dark to Light, for flute, clarinet, violin, cello, piano/sampler & percussion by Christopher Hopkins
Performer: Robert Bridge (Percussion), Linda Greene (Flute), Greg Wood (Cello),
Steven Heyman (), David Abrams (Clarinet), Steven Heyman (Piano),
James Krehbiel (Violin)
Conductor: Christopher Hopkins
Written: 2000
Length: 18 Minutes 9 Secs.
16. Clarinet Quartet, for clarinet/bass clarinet, violin, cello & percussion by Ronald Caltabiano
Performer: Robert Bridge (Percussion), Greg Wood (Cello), John Friedrichs (Clarinet),
John Friedrichs (), James Krehbiel (Violin)
Period: Contemporary
Written: 1998
Length: 12 Minutes 32 Secs.
17. Wakings, for flute, clarinet, violin, cello & percussion by Ann Silsbee
Performer: Barbara Rabin (Clarinet), Martin Wulfhorst (Violin), Linda Greene (Flute),
Lynden Cranham (Cello), Laurance Luttinger (Percussion)
Conductor: Daniel S. Godfrey
Period: Contemporary
Written: 1986
Length: 9 Minutes 59 Secs.
18. Adoration & Longing, for voice & string quartet by Howard Boatwright
Performer: Kit Dodd (Viola), Michael Bosetti (Violin), George Macero (Cello),
Janet Brown (), Vladimir Pritsker (Violin)
Period: Contemporary
Written: 1991
Length: 14 Minutes 22 Secs.

CD4
19. Rhapsodies by David Liptak
Performer: Linda Greene (Flute), Dmitri Gerihk (Violin), Steven Heyman (Piano),
Walden Bass (Cello), John Friedrichs (Clarinet)
Period: 20th Century
Written: 1992; USA
Length: 15 Minutes 23 Secs.
20. Crónicas del descubrimiento by Roberto Sierra
Performer: Timothy Schmidt (Guitar), Selma Moore (Flute)
Period: 20th Century
Written: 1991; USA
Length: 19 Minutes 1 Secs. 21.
A Poison Tree by Richard Wernick
Performer: Barbara Rabin (Clarinet), James Krehbiel (Violin), Brian Israel (Piano),
Neva Pilgrim (), George Macero (Cello), John Oberbrunner (Flute)
Period: 20th Century
Written: 1979; USA
Length: 12 Minutes 4 Secs.
22. Crane Songs, for soprano & ensemble by Samuel Pellman
Performer: Barbara Rabin (Clarinet), Brian Israel (Piano), Neva Pilgrim (),
Sonya Monosoff (Violin), Laurance Luttinger (Percussion), John Oberbrunner (Flute)
Conductor: Steven Edward Stucky
Written: 1983-1984
Length: 10 Minutes 24 Secs.
23. Bells Ring Summer by Augusta Read Thomas
Performer: George Macero (Cello)
Period: 20th Century
Written: USA
Length: 2 Minutes 43 Secs.
24. Etudes (6) for piano: 1. Orbital Beacons (homage to Berio) by Augusta Read Thomas
Performer: Steven Heyman (Piano)
Period: Contemporary
Written: 1996-2005
Length: 3 Minutes 18 Secs.
25. Etudes (6) for piano: 2. Fire Waltz (homage to Bartók, a Perpetual Motion) by Augusta Read Thomas
Performer: Steven Heyman (Piano)
Period: Contemporary
Written: 1996-2005
Length: 1 Minutes 58 Secs.
26. Yangtze! Yangtze!, for flute, clarinet, violin, cello, piano & percussion by Ping Jin
Performer: Cristina Buciu (Violin), Selma Moore (Flute), Jennifer Vacanti (Percussion),
Kevin Moore (Piano), Greg Wood (Cello), John Friedrichs (Clarinet)
Conductor: Mark Scatterday
Written: 2002
Length: 13 Minutes 7 Secs.

CD5
27. Society Music for chamber ensemble by James Willey
Performer: Eric Gustafson (Viola), Linda Greene (Piccolo), Linda Greene (Flute),
Edward Castilano (Double Bass), Linda Greene (), George Macero (Cello),
Barbara Rabin (Clarinet), Donna Resue (Horn), George Coble (Trumpet),
Steven Heyman (Piano), Bill Harris (Trombone), William Henry Harris (Trombone),
Laurance Luttinger (Percussion)
Conductor: Ed Murray
Period: Modern
Written: 1986
Length: 9 Minutes 25 Secs.
28. Some Summer Sun, for flute by Nicholas V. D'Angelo
Performer: Linda Greene (Flute)
Written: 1985
Length: 4 Minutes 4 Secs.
29. Epitaph & Scherzo, for violin, clarinet & piano by Sydney Hodkinson Performer: Cristina Buciu (Violin), Sar Shalom Strong (Piano), David Abrams (Clarinet)
Period: Contemporary
Written: 1988
Length: 15 Minutes 18 Secs.
30. Six Dark Questions, for soprano & tape by Dexter Morrill
Performer: Neva Pilgrim ()
Period: Modern
Written: 1979
Length: 13 Minutes 29 Secs.
31. Wind Through Pines, for flute, cello & prepared piano by Liu Zhuang
Performer: George Macero (Cello), Steven Heyman (Piano), John Oberbrunner (Flute)
Written: 1999
Length: 12 Minutes 37 Secs.
32. Dance Mix, for 2 saxophones, 2 trumpets, 2 trombones, amplified bass & 4 percussionists by Rob Smith
Performer: Kati Coe (Percussion), John Raschella (Trumpet), Chris Ganey (Percussion),
Darryl Pugh (Double Bass), Ralph Dudgeon (Trumpet), Robert Bridge (Percussion),
Bill Harris (), Ron Caravan (Saxophone), Benjamin Osborne (),
Benjamin Osborne (Trombone), John Bird (Percussion), Dan Miller (Saxophone),
Bill Harris (Trombone)
Period: Contemporary
Written: 2000
Length: 8 Minutes 51 Secs.

Exact Audio Copy V1.0 beta 3 from 29. August 2011

EAC extraction logfile from 22. February 2013, 23:39

Society for New Music / American Masters for the 21st Century

Used drive : TSSTcorpDVD+-RW TS-H653B Adapter: 2 ID: 0

Read mode : Secure
Utilize accurate stream : Yes
Defeat audio cache : Yes
Make use of C2 pointers : No

Read offset correction : 6
Overread into Lead-In and Lead-Out : No
Fill up missing offset samples with silence : Yes
Delete leading and trailing silent blocks : No
Null samples used in CRC calculations : Yes
Used interface : Installed external ASPI interface
Gap handling : Appended to previous track

Used output format : User Defined Encoder
Selected bitrate : 1024 kBit/s
Quality : High
Add ID3 tag : No
Command line compressor : C:\Program Files (x86)\Exact Audio Copy\Flac\flac.exe
Additional command line options : -8 -V -T "ARTIST=%artist%" -T "TITLE=%title%" -T "ALBUM=%albumtitle%" -T "DATE=%year%" -T "TRACKNUMBER=%tracknr%" -T "GENRE=%genre%" -T "PERFORMER=%albuminterpret%" -T "COMPOSER=%composer%" %haslyrics%–tag-from-file=LYRICS="%lyricsfile%"%haslyrics% -T "ALBUMARTIST=%albumartist%" -T "DISCNUMBER=%cdnumber%" -T "TOTALDISCS=%totalcds%" -T "TOTALTRACKS=%numtracks%" -T "COMMENT=%comment%" %source% -o %dest%


TOC of the extracted CD

Track | Start | Length | Start sector | End sector
––––––––––––––––––––––––––––-
1 | 0:00.00 | 12:44.45 | 0 | 57344
2 | 12:44.45 | 15:28.40 | 57345 | 126984
3 | 28:13.10 | 5:22.20 | 126985 | 151154
4 | 33:35.30 | 8:50.02 | 151155 | 190906
5 | 42:25.32 | 5:29.50 | 190907 | 215631
6 | 47:55.07 | 10:58.08 | 215632 | 264989
7 | 58:53.15 | 14:32.65 | 264990 | 330454


Track 1

Filename C:\Society for New Music - 2005 - American Masters for the 21st Century\Disc 1\01 - Sappho Fragments.wav

Pre-gap length 0:00:02.00

Peak level 100.0 %
Extraction speed 5.2 X
Track quality 99.9 %
Test CRC A5CC117F
Copy CRC A5CC117F
Track not present in AccurateRip database
Copy OK

Track 2

Filename C:\Society for New Music - 2005 - American Masters for the 21st Century\Disc 1\02 - String Quartet No. 2- Scherzo.wav

Pre-gap length 0:00:05.97

Peak level 71.7 %
Extraction speed 7.1 X
Track quality 100.0 %
Test CRC 44B1F9A2
Copy CRC 44B1F9A2
Track not present in AccurateRip database
Copy OK

Track 3

Filename C:\Society for New Music - 2005 - American Masters for the 21st Century\Disc 1\03 - String Quartet No. 2- Variations on a Baroque Sarabande.wav

Pre-gap length 0:00:01.97

Peak level 78.8 %
Extraction speed 7.4 X
Track quality 100.0 %
Test CRC A1BB33EE
Copy CRC A1BB33EE
Track not present in AccurateRip database
Copy OK

Track 4

Filename C:\Society for New Music - 2005 - American Masters for the 21st Century\Disc 1\04 - String Quartet No. 2- Scherzo II.wav

Pre-gap length 0:00:02.00

Peak level 81.3 %
Extraction speed 8.3 X
Track quality 100.0 %
Test CRC 3139D167
Copy CRC 3139D167
Track not present in AccurateRip database
Copy OK

Track 5

Filename C:\Society for New Music - 2005 - American Masters for the 21st Century\Disc 1\05 - String Quartet No. 2- Last Rites (largo).wav

Pre-gap length 0:00:01.97

Peak level 99.7 %
Extraction speed 7.1 X
Track quality 99.9 %
Test CRC 4F7D0711
Copy CRC 4F7D0711
Track not present in AccurateRip database
Copy OK

Track 6

Filename C:\Society for New Music - 2005 - American Masters for the 21st Century\Disc 1\06 - My Aunt Gives Me a Clarinet Lesson.wav

Pre-gap length 0:00:05.96

Peak level 99.5 %
Extraction speed 9.3 X
Track quality 100.0 %
Test CRC 18B50A8E
Copy CRC 18B50A8E
Track not present in AccurateRip database
Copy OK

Track 7

Filename C:\Society for New Music - 2005 - American Masters for the 21st Century\Disc 1\07 - Riff, Variations on a Gershwin Tune (or Two).wav

Pre-gap length 0:00:05.97

Peak level 98.8 %
Extraction speed 10.2 X
Track quality 100.0 %
Test CRC ACB36828
Copy CRC ACB36828
Track not present in AccurateRip database
Copy OK


None of the tracks are present in the AccurateRip database

No errors occurred

End of status report

==== Log checksum 9D58D08547CAC064BBB2F98E91365744F80304C3B5383C41524F0E6266067BBF ====

Exact Audio Copy V1.0 beta 3 from 29. August 2011

EAC extraction logfile from 23. February 2013, 18:16

Society for New Music / American Masters of the 21st Century

Used drive : TSSTcorpDVD+-RW TS-H653B Adapter: 2 ID: 0

Read mode : Secure
Utilize accurate stream : Yes
Defeat audio cache : Yes
Make use of C2 pointers : No

Read offset correction : 6
Overread into Lead-In and Lead-Out : No
Fill up missing offset samples with silence : Yes
Delete leading and trailing silent blocks : No
Null samples used in CRC calculations : Yes
Used interface : Installed external ASPI interface
Gap handling : Appended to previous track

Used output format : User Defined Encoder
Selected bitrate : 1024 kBit/s
Quality : High
Add ID3 tag : No
Command line compressor : C:\Program Files (x86)\Exact Audio Copy\Flac\flac.exe
Additional command line options : -8 -V -T "ARTIST=%artist%" -T "TITLE=%title%" -T "ALBUM=%albumtitle%" -T "DATE=%year%" -T "TRACKNUMBER=%tracknr%" -T "GENRE=%genre%" -T "PERFORMER=%albuminterpret%" -T "COMPOSER=%composer%" %haslyrics%–tag-from-file=LYRICS="%lyricsfile%"%haslyrics% -T "ALBUMARTIST=%albumartist%" -T "DISCNUMBER=%cdnumber%" -T "TOTALDISCS=%totalcds%" -T "TOTALTRACKS=%numtracks%" -T "COMMENT=%comment%" %source% -o %dest%


TOC of the extracted CD

Track | Start | Length | Start sector | End sector
––––––––––––––––––––––––––––-
1 | 0:00.00 | 12:59.05 | 0 | 58429
2 | 12:59.05 | 3:32.65 | 58430 | 74394
3 | 16:31.70 | 2:37.17 | 74395 | 86186
4 | 19:09.12 | 2:17.05 | 86187 | 96466
5 | 21:26.17 | 5:41.45 | 96467 | 122086
6 | 27:07.62 | 8:56.05 | 122087 | 162291
7 | 36:03.67 | 4:46.63 | 162292 | 183804
8 | 40:50.55 | 3:53.72 | 183805 | 201351
9 | 44:44.52 | 7:00.20 | 201352 | 232871
10 | 51:44.72 | 4:47.65 | 232872 | 254461
11 | 56:32.62 | 3:18.25 | 254462 | 269336
12 | 59:51.12 | 3:04.65 | 269337 | 283201
13 | 62:56.02 | 2:38.55 | 283202 | 295106
14 | 65:34.57 | 9:42.28 | 295107 | 338784


Track 1

Filename C:\Society for New Music - 2005 - American Masters for the 21st Century\Disc 2\01 - The Surma Ritornelli.wav

Pre-gap length 0:00:02.00

Peak level 100.0 %
Extraction speed 5.7 X
Track quality 100.0 %
Test CRC 72529F82
Copy CRC 72529F82
Track not present in AccurateRip database
Copy OK

Track 2

Filename C:\Society for New Music - 2005 - American Masters for the 21st Century\Disc 2\02 - Carmina Amoris- To Aphrodite of the Flowers at Cnossos.wav

Pre-gap length 0:00:05.97

Peak level 85.9 %
Extraction speed 5.9 X
Track quality 100.0 %
Test CRC 526FD7AC
Copy CRC 526FD7AC
Track not present in AccurateRip database
Copy OK

Track 3

Filename C:\Society for New Music - 2005 - American Masters for the 21st Century\Disc 2\03 - Carmina Amoris- Though Amaryllis Dance in Green.wav

Pre-gap length 0:00:01.97

Peak level 91.9 %
Extraction speed 5.8 X
Track quality 100.0 %
Test CRC 766CB99A
Copy CRC 766CB99A
Track not present in AccurateRip database
Copy OK

Track 4

Filename C:\Society for New Music - 2005 - American Masters for the 21st Century\Disc 2\04 - Carmina Amoris- Venus.wav

Pre-gap length 0:00:01.66

Peak level 97.0 %
Extraction speed 5.8 X
Track quality 100.0 %
Test CRC 18C78B5A
Copy CRC 18C78B5A
Track not present in AccurateRip database
Copy OK

Track 5

Filename C:\Society for New Music - 2005 - American Masters for the 21st Century\Disc 2\05 - Arioso.wav

Pre-gap length 0:00:05.66

Peak level 99.4 %
Extraction speed 6.0 X
Track quality 99.9 %
Test CRC 6B329AC9
Copy CRC 6B329AC9
Track not present in AccurateRip database
Copy OK

Track 6

Filename C:\Society for New Music - 2005 - American Masters for the 21st Century\Disc 2\06 - Scrimshaw.wav

Pre-gap length 0:00:05.96

Peak level 98.9 %
Extraction speed 7.9 X
Track quality 100.0 %
Test CRC F37430AE
Copy CRC F37430AE
Track not present in AccurateRip database
Copy OK

Track 7

Filename C:\Society for New Music - 2005 - American Masters for the 21st Century\Disc 2\07 - Festoons.wav

Pre-gap length 0:00:05.82

Peak level 56.9 %
Extraction speed 6.5 X
Track quality 99.9 %
Test CRC 0E63B3E5
Copy CRC 0E63B3E5
Track not present in AccurateRip database
Copy OK

Track 8

Filename C:\Society for New Music - 2005 - American Masters for the 21st Century\Disc 2\08 - Partita VI- Barbra Allen.wav

Pre-gap length 0:00:05.60

Peak level 52.1 %
Extraction speed 7.9 X
Track quality 100.0 %
Test CRC 02904D09
Copy CRC 02904D09
Track not present in AccurateRip database
Copy OK

Track 9

Filename C:\Society for New Music - 2005 - American Masters for the 21st Century\Disc 2\09 - Partita VI- Farewell, Dear Rosanna.wav

Pre-gap length 0:00:01.62

Peak level 53.4 %
Extraction speed 7.6 X
Track quality 99.9 %
Test CRC 69E40B31
Copy CRC 69E40B31
Track not present in AccurateRip database
Copy OK

Track 10

Filename C:\Society for New Music - 2005 - American Masters for the 21st Century\Disc 2\10 - Partita VI- The Three Sisters.wav

Pre-gap length 0:00:01.60

Peak level 94.0 %
Extraction speed 8.8 X
Track quality 100.0 %
Test CRC CF4EF2D7
Copy CRC CF4EF2D7
Track not present in AccurateRip database
Copy OK

Track 11

Filename C:\Society for New Music - 2005 - American Masters for the 21st Century\Disc 2\11 - 3 Etudes- I.wav

Pre-gap length 0:00:05.76

Peak level 24.8 %
Extraction speed 8.6 X
Track quality 100.0 %
Test CRC 906B5DDF
Copy CRC 906B5DDF
Track not present in AccurateRip database
Copy OK

Track 12

Filename C:\Society for New Music - 2005 - American Masters for the 21st Century\Disc 2\12 - 3 Etudes- II.wav

Pre-gap length 0:00:01.80

Peak level 28.8 %
Extraction speed 8.5 X
Track quality 100.0 %
Test CRC 7577A2B3
Copy CRC 7577A2B3
Track not present in AccurateRip database
Copy OK

Track 13

Filename C:\Society for New Music - 2005 - American Masters for the 21st Century\Disc 2\13 - 3 Etudes- III.wav

Pre-gap length 0:00:01.76

Peak level 96.9 %
Extraction speed 8.5 X
Track quality 100.0 %
Test CRC C5C7A2A1
Copy CRC C5C7A2A1
Track not present in AccurateRip database
Copy OK

Track 14

Filename C:\Society for New Music - 2005 - American Masters for the 21st Century\Disc 2\14 - Dancing with the Devil.wav

Pre-gap length 0:00:05.96

Peak level 92.9 %
Extraction speed 10.2 X
Track quality 100.0 %
Test CRC C5FC985D
Copy CRC C5FC985D
Track not present in AccurateRip database
Copy OK


None of the tracks are present in the AccurateRip database

No errors occurred

End of status report

==== Log checksum D64D2A2DD46ED31F5D7131972650A94FCA006FB9BC76716966ACF5DA261895B7 ====

Exact Audio Copy V1.0 beta 3 from 29. August 2011

EAC extraction logfile from 24. February 2013, 7:01

Society for New Music / American Masters of the 21st Century

Used drive : TSSTcorpDVD+-RW TS-H653B Adapter: 2 ID: 0

Read mode : Secure
Utilize accurate stream : Yes
Defeat audio cache : Yes
Make use of C2 pointers : No

Read offset correction : 6
Overread into Lead-In and Lead-Out : No
Fill up missing offset samples with silence : Yes
Delete leading and trailing silent blocks : No
Null samples used in CRC calculations : Yes
Used interface : Installed external ASPI interface
Gap handling : Appended to previous track

Used output format : User Defined Encoder
Selected bitrate : 1024 kBit/s
Quality : High
Add ID3 tag : No
Command line compressor : C:\Program Files (x86)\Exact Audio Copy\Flac\flac.exe
Additional command line options : -8 -V -T "ARTIST=%artist%" -T "TITLE=%title%" -T "ALBUM=%albumtitle%" -T "DATE=%year%" -T "TRACKNUMBER=%tracknr%" -T "GENRE=%genre%" -T "PERFORMER=%albuminterpret%" -T "COMPOSER=%composer%" %haslyrics%–tag-from-file=LYRICS="%lyricsfile%"%haslyrics% -T "ALBUMARTIST=%albumartist%" -T "DISCNUMBER=%cdnumber%" -T "TOTALDISCS=%totalcds%" -T "TOTALTRACKS=%numtracks%" -T "COMMENT=%comment%" %source% -o %dest%


TOC of the extracted CD

Track | Start | Length | Start sector | End sector
––––––––––––––––––––––––––––-
1 | 0:00.00 | 12:28.49 | 0 | 56148
2 | 12:28.49 | 9:22.38 | 56149 | 98336
3 | 21:51.12 | 18:09.25 | 98337 | 180036
4 | 40:00.37 | 12:32.19 | 180037 | 236455
5 | 52:32.56 | 9:59.40 | 236456 | 281420
6 | 62:32.21 | 14:22.71 | 281421 | 346141


Track 1

Filename C:\Society for New Music - 2005 - American Masters for the 21st Century\Disc 3\01 - Sextet.wav

Pre-gap length 0:00:02.00

Peak level 93.0 %
Extraction speed 5.4 X
Track quality 99.9 %
Test CRC 89AB794A
Copy CRC 89AB794A
Track not present in AccurateRip database
Copy OK

Track 2

Filename C:\Society for New Music - 2005 - American Masters for the 21st Century\Disc 3\02 - From the Grotte des Combarelles.wav

Pre-gap length 0:00:06.00

Peak level 99.7 %
Extraction speed 6.8 X
Track quality 100.0 %
Test CRC FD460178
Copy CRC FD460178
Track not present in AccurateRip database
Copy OK

Track 3

Filename C:\Society for New Music - 2005 - American Masters for the 21st Century\Disc 3\03 - Sonatas in Dark to Light.wav

Pre-gap length 0:00:06.00

Peak level 100.0 %
Extraction speed 8.2 X
Track quality 100.0 %
Test CRC 6E43271D
Copy CRC 6E43271D
Track not present in AccurateRip database
Copy OK

Track 4

Filename C:\Society for New Music - 2005 - American Masters for the 21st Century\Disc 3\04 - Clarinet Quartet.wav

Pre-gap length 0:00:06.00

Peak level 100.0 %
Extraction speed 9.2 X
Track quality 100.0 %
Test CRC 18D6FB14
Copy CRC 18D6FB14
Track not present in AccurateRip database
Copy OK

Track 5

Filename C:\Society for New Music - 2005 - American Masters for the 21st Century\Disc 3\05 - Wakings.wav

Pre-gap length 0:00:06.00

Peak level 100.0 %
Extraction speed 9.8 X
Track quality 100.0 %
Test CRC D5184EC1
Copy CRC D5184EC1
Track not present in AccurateRip database
Copy OK

Track 6

Filename C:\Society for New Music - 2005 - American Masters for the 21st Century\Disc 3\06 - Adoration & Longing.wav

Pre-gap length 0:00:06.00

Peak level 100.0 %
Extraction speed 10.7 X
Track quality 100.0 %
Test CRC 67D820EC
Copy CRC 67D820EC
Track not present in AccurateRip database
Copy OK


None of the tracks are present in the AccurateRip database

No errors occurred

End of status report

==== Log checksum 744B9A3F1A023BC73C7B1DD36799C67D91C13BC884D64D041DE2462A5A636F9D ====

Exact Audio Copy V1.0 beta 3 from 29. August 2011

EAC extraction logfile from 24. February 2013, 7:37

Society for New Music / American Masters of the 21st Century

Used drive : TSSTcorpDVD+-RW TS-H653B Adapter: 2 ID: 0

Read mode : Secure
Utilize accurate stream : Yes
Defeat audio cache : Yes
Make use of C2 pointers : No

Read offset correction : 6
Overread into Lead-In and Lead-Out : No
Fill up missing offset samples with silence : Yes
Delete leading and trailing silent blocks : No
Null samples used in CRC calculations : Yes
Used interface : Installed external ASPI interface
Gap handling : Appended to previous track

Used output format : User Defined Encoder
Selected bitrate : 1024 kBit/s
Quality : High
Add ID3 tag : No
Command line compressor : C:\Program Files (x86)\Exact Audio Copy\Flac\flac.exe
Additional command line options : -8 -V -T "ARTIST=%artist%" -T "TITLE=%title%" -T "ALBUM=%albumtitle%" -T "DATE=%year%" -T "TRACKNUMBER=%tracknr%" -T "GENRE=%genre%" -T "PERFORMER=%albuminterpret%" -T "COMPOSER=%composer%" %haslyrics%–tag-from-file=LYRICS="%lyricsfile%"%haslyrics% -T "ALBUMARTIST=%albumartist%" -T "DISCNUMBER=%cdnumber%" -T "TOTALDISCS=%totalcds%" -T "TOTALTRACKS=%numtracks%" -T "COMMENT=%comment%" %source% -o %dest%


TOC of the extracted CD

Track | Start | Length | Start sector | End sector
––––––––––––––––––––––––––––-
1 | 0:00.00 | 3:26.02 | 0 | 15451
2 | 3:26.02 | 6:03.49 | 15452 | 42725
3 | 9:29.51 | 5:54.34 | 42726 | 69309
4 | 15:24.10 | 2:01.02 | 69310 | 78386
5 | 17:25.12 | 2:26.30 | 78387 | 89366
6 | 19:51.42 | 4:20.39 | 89367 | 108905
7 | 24:12.06 | 4:47.42 | 108906 | 130472
8 | 28:59.48 | 2:51.12 | 130473 | 143309
9 | 31:50.60 | 3:16.35 | 143310 | 158044
10 | 35:07.20 | 12:04.59 | 158045 | 212403
11 | 47:12.04 | 3:37.38 | 212404 | 228716
12 | 50:49.42 | 1:16.73 | 228717 | 234489
13 | 52:06.40 | 1:24.35 | 234490 | 240824
14 | 53:31.00 | 4:47.61 | 240825 | 262410
15 | 58:18.61 | 2:43.72 | 262411 | 274707
16 | 61:02.58 | 3:18.70 | 274708 | 289627
17 | 64:21.53 | 1:58.10 | 289628 | 298487
18 | 66:19.63 | 13:07.68 | 298488 | 357580


Track 1

Filename C:\Society for New Music - 2005 - American Masters for the 21st Century\Disc 4\01 - Rhapsodies- Con forza.wav

Pre-gap length 0:00:02.00

Peak level 88.5 %
Extraction speed 4.8 X
Track quality 100.0 %
Test CRC D866F0B2
Copy CRC D866F0B2
Track not present in AccurateRip database
Copy OK

Track 2

Filename C:\Society for New Music - 2005 - American Masters for the 21st Century\Disc 4\02 - Rhapsodies- Lirico.wav

Pre-gap length 0:00:02.00

Peak level 52.8 %
Extraction speed 5.7 X
Track quality 100.0 %
Test CRC 03EFAC28
Copy CRC 03EFAC28
Track not present in AccurateRip database
Copy OK

Track 3

Filename C:\Society for New Music - 2005 - American Masters for the 21st Century\Disc 4\03 - Rhapsodies- Allegro disinvolto.wav

Pre-gap length 0:00:02.00

Peak level 75.2 %
Extraction speed 6.2 X
Track quality 100.0 %
Test CRC 756FCDD7
Copy CRC 756FCDD7
Track not present in AccurateRip database
Copy OK

Track 4

Filename C:\Society for New Music - 2005 - American Masters for the 21st Century\Disc 4\04 - Cronicas del discubrimiento- Primera Cronica- I. Leyenda Taina.wav

Pre-gap length 0:00:06.00

Peak level 56.1 %
Extraction speed 5.5 X
Track quality 100.0 %
Test CRC C17CD2BD
Copy CRC C17CD2BD
Track not present in AccurateRip database
Copy OK

Track 5

Filename C:\Society for New Music - 2005 - American Masters for the 21st Century\Disc 4\05 - Cronicas del discubrimiento- Primera Cronica- II. Danza.wav

Pre-gap length 0:00:01.00

Peak level 91.3 %
Extraction speed 4.4 X
Track quality 99.9 %
Test CRC B52BCA96
Copy CRC B52BCA96
Track not present in AccurateRip database
Copy OK

Track 6

Filename C:\Society for New Music - 2005 - American Masters for the 21st Century\Disc 4\06 - Cronicas del discubrimiento- Segunda Cronica- I. Noche.wav

Pre-gap length 0:00:02.00

Peak level 93.8 %
Extraction speed 6.7 X
Track quality 100.0 %
Test CRC 56B6117A
Copy CRC 56B6117A
Track not present in AccurateRip database
Copy OK

Track 7

Filename C:\Society for New Music - 2005 - American Masters for the 21st Century\Disc 4\07 - Cronicas del discubrimiento- Segunda Cronica- II. Busca del Oro.wav

Pre-gap length 0:00:02.00

Peak level 79.3 %
Extraction speed 7.3 X
Track quality 100.0 %
Test CRC 327DF575
Copy CRC 327DF575
Track not present in AccurateRip database
Copy OK

Track 8

Filename C:\Society for New Music - 2005 - American Masters for the 21st Century\Disc 4\08 - Cronicas del discubrimiento- Tercera Cronica- I. Canción.wav

Pre-gap length 0:00:02.00

Peak level 72.7 %
Extraction speed 7.0 X
Track quality 100.0 %
Test CRC 6D06ED68
Copy CRC 6D06ED68
Track not present in AccurateRip database
Copy OK

Track 9

Filename C:\Society for New Music - 2005 - American Masters for the 21st Century\Disc 4\09 - Cronicas del discubrimiento- Tercera Cronica- II. Batallia.wav

Pre-gap length 0:00:02.00

Peak level 100.0 %
Extraction speed 7.3 X
Track quality 100.0 %
Test CRC E755F7BE
Copy CRC E755F7BE
Track not present in AccurateRip database
Copy OK

Track 10

Filename C:\Society for New Music - 2005 - American Masters for the 21st Century\Disc 4\10 - A Poison Tree.wav

Pre-gap length 0:00:06.00

Peak level 100.0 %
Extraction speed 8.9 X
Track quality 100.0 %
Test CRC 5B77AAFE
Copy CRC 5B77AAFE
Track not present in AccurateRip database
Copy OK

Track 11

Filename C:\Society for New Music - 2005 - American Masters for the 21st Century\Disc 4\11 - Crane Songs- I..wav

Pre-gap length 0:00:06.00

Peak level 82.7 %
Extraction speed 8.5 X
Track quality 100.0 %
Test CRC B26F40F5
Copy CRC B26F40F5
Track not present in AccurateRip database
Copy OK

Track 12

Filename C:\Society for New Music - 2005 - American Masters for the 21st Century\Disc 4\12 - Crane Songs- II..wav

Pre-gap length 0:00:02.00

Peak level 31.6 %
Extraction speed 6.6 X
Track quality 100.0 %
Test CRC E435033A
Copy CRC E435033A
Track not present in AccurateRip database
Copy OK

Track 13

Filename C:\Society for New Music - 2005 - American Masters for the 21st Century\Disc 4\13 - Crane Songs- III..wav

Pre-gap length 0:00:02.00

Peak level 36.5 %
Extraction speed 6.9 X
Track quality 100.0 %
Test CRC F6C52103
Copy CRC F6C52103
Track not present in AccurateRip database
Copy OK

Track 14

Filename C:\Society for New Music - 2005 - American Masters for the 21st Century\Disc 4\14 - Crane Songs- IV..wav

Pre-gap length 0:00:02.00

Peak level 98.6 %
Extraction speed 7.5 X
Track quality 99.9 %
Test CRC EF319D02
Copy CRC EF319D02
Track not present in AccurateRip database
Copy OK

Track 15

Filename C:\Society for New Music - 2005 - American Masters for the 21st Century\Disc 4\15 - Bells Ring Summer.wav

Pre-gap length 0:00:06.00

Peak level 79.7 %
Extraction speed 8.5 X
Track quality 100.0 %
Test CRC 89B2B431
Copy CRC 89B2B431
Track not present in AccurateRip database
Copy OK

Track 16

Filename C:\Society for New Music - 2005 - American Masters for the 21st Century\Disc 4\16 - 2 Etudes- I. Orbital Beacons (homage to Berio).wav

Pre-gap length 0:00:06.00

Peak level 51.2 %
Extraction speed 9.0 X
Track quality 100.0 %
Test CRC 63F9EA87
Copy CRC 63F9EA87
Track not present in AccurateRip database
Copy OK

Track 17

Filename C:\Society for New Music - 2005 - American Masters for the 21st Century\Disc 4\17 - 2 Etudes- II. Fire Waltz (homage to Bartók, a Perpetual Motion).wav

Pre-gap length 0:00:02.00

Peak level 99.5 %
Extraction speed 8.1 X
Track quality 100.0 %
Test CRC DC8EF91B
Copy CRC DC8EF91B
Track not present in AccurateRip database
Copy OK

Track 18

Filename C:\Society for New Music - 2005 - American Masters for the 21st Century\Disc 4\18 - Yangtze! Yangtze!.wav

Pre-gap length 0:00:06.00

Peak level 100.0 %
Extraction speed 10.8 X
Track quality 100.0 %
Test CRC 4B7D1CF7
Copy CRC 4B7D1CF7
Track not present in AccurateRip database
Copy OK


None of the tracks are present in the AccurateRip database

No errors occurred

End of status report

==== Log checksum 492D00E71962DCA6ED8B0DE5FFDFAC5474CDDA5B6C8660FCE5186D2E05D7861E ====

Exact Audio Copy V1.0 beta 3 from 29. August 2011

EAC extraction logfile from 24. February 2013, 8:06

Society for New Music / American Masters of the 21st Century

Used drive : TSSTcorpDVD+-RW TS-H653B Adapter: 2 ID: 0

Read mode : Secure
Utilize accurate stream : Yes
Defeat audio cache : Yes
Make use of C2 pointers : No

Read offset correction : 6
Overread into Lead-In and Lead-Out : No
Fill up missing offset samples with silence : Yes
Delete leading and trailing silent blocks : No
Null samples used in CRC calculations : Yes
Used interface : Installed external ASPI interface
Gap handling : Appended to previous track

Used output format : User Defined Encoder
Selected bitrate : 1024 kBit/s
Quality : High
Add ID3 tag : No
Command line compressor : C:\Program Files (x86)\Exact Audio Copy\Flac\flac.exe
Additional command line options : -8 -V -T "ARTIST=%artist%" -T "TITLE=%title%" -T "ALBUM=%albumtitle%" -T "DATE=%year%" -T "TRACKNUMBER=%tracknr%" -T "GENRE=%genre%" -T "PERFORMER=%albuminterpret%" -T "COMPOSER=%composer%" %haslyrics%–tag-from-file=LYRICS="%lyricsfile%"%haslyrics% -T "ALBUMARTIST=%albumartist%" -T "DISCNUMBER=%cdnumber%" -T "TOTALDISCS=%totalcds%" -T "TOTALTRACKS=%numtracks%" -T "COMMENT=%comment%" %source% -o %dest%


TOC of the extracted CD

Track | Start | Length | Start sector | End sector
––––––––––––––––––––––––––––-
1 | 0:00.00 | 9:25.17 | 0 | 42391
2 | 9:25.17 | 4:04.08 | 42392 | 60699
3 | 13:29.25 | 3:05.35 | 60700 | 74609
4 | 16:34.60 | 3:19.22 | 74610 | 89556
5 | 19:54.07 | 15:18.05 | 89557 | 158411
6 | 35:12.12 | 1:13.22 | 158412 | 163908
7 | 36:25.34 | 2:05.48 | 163909 | 173331
8 | 38:31.07 | 3:03.18 | 173332 | 187074
9 | 41:34.25 | 2:33.70 | 187075 | 198619
10 | 44:08.20 | 2:56.47 | 198620 | 211866
11 | 47:04.67 | 2:19.63 | 211867 | 222354
12 | 49:24.55 | 12:37.17 | 222355 | 279146
13 | 62:01.72 | 8:51.55 | 279147 | 319026


Track 1

Filename C:\Society for New Music - 2005 - American Masters for the 21st Century\Disc 5\01 - Society Music.wav

Pre-gap length 0:00:02.00

Peak level 100.0 %
Extraction speed 5.2 X
Track quality 100.0 %
Test CRC 1CF6CDE8
Copy CRC 1CF6CDE8
Track not present in AccurateRip database
Copy OK

Track 2

Filename C:\Society for New Music - 2005 - American Masters for the 21st Century\Disc 5\02 - Some Summer Sun- I..wav

Pre-gap length 0:00:05.96

Peak level 86.9 %
Extraction speed 5.5 X
Track quality 100.0 %
Test CRC 4F647B2E
Copy CRC 4F647B2E
Track not present in AccurateRip database
Copy OK

Track 3

Filename C:\Society for New Music - 2005 - American Masters for the 21st Century\Disc 5\03 - Some Summer Sun- II..wav

Pre-gap length 0:00:01.97

Peak level 98.6 %
Extraction speed 5.6 X
Track quality 100.0 %
Test CRC 63E787BB
Copy CRC 63E787BB
Track not present in AccurateRip database
Copy OK

Track 4

Filename C:\Society for New Music - 2005 - American Masters for the 21st Century\Disc 5\04 - Some Summer Sun- III..wav

Pre-gap length 0:00:01.97

Peak level 55.1 %
Extraction speed 5.9 X
Track quality 100.0 %
Test CRC DB06C909
Copy CRC DB06C909
Track not present in AccurateRip database
Copy OK

Track 5

Filename C:\Society for New Music - 2005 - American Masters for the 21st Century\Disc 5\05 - Epitaph & Scherzo.wav

Pre-gap length 0:00:05.96

Peak level 98.5 %
Extraction speed 7.5 X
Track quality 100.0 %
Test CRC 9789A005
Copy CRC 9789A005
Track not present in AccurateRip database
Copy OK

Track 6

Filename C:\Society for New Music - 2005 - American Masters for the 21st Century\Disc 5\06 - Six Dark Questions- I..wav

Pre-gap length 0:00:05.96

Peak level 63.4 %
Extraction speed 5.6 X
Track quality 100.0 %
Test CRC 1C1978DE
Copy CRC 1C1978DE
Track not present in AccurateRip database
Copy OK

Track 7

Filename C:\Society for New Music - 2005 - American Masters for the 21st Century\Disc 5\07 - Six Dark Questions- II..wav

Pre-gap length 0:00:01.96

Peak level 97.6 %
Extraction speed 6.6 X
Track quality 100.0 %
Test CRC 4027176C
Copy CRC 4027176C
Track not present in AccurateRip database
Copy OK

Track 8

Filename C:\Society for New Music - 2005 - American Masters for the 21st Century\Disc 5\08 - Six Dark Questions- III..wav

Pre-gap length 0:00:01.96

Peak level 79.7 %
Extraction speed 5.6 X
Track quality 99.9 %
Test CRC 4E6940B5
Copy CRC 4E6940B5
Track not present in AccurateRip database
Copy OK

Track 9

Filename C:\Society for New Music - 2005 - American Masters for the 21st Century\Disc 5\09 - Six Dark Questions- IV..wav

Pre-gap length 0:00:01.97

Peak level 89.2 %
Extraction speed 7.1 X
Track quality 100.0 %
Test CRC 7AFDB127
Copy CRC 7AFDB127
Track not present in AccurateRip database
Copy OK

Track 10

Filename C:\Society for New Music - 2005 - American Masters for the 21st Century\Disc 5\10 - Six Dark Questions- V..wav

Pre-gap length 0:00:02.00

Peak level 76.9 %
Extraction speed 5.8 X
Track quality 99.9 %
Test CRC 660D5E39
Copy CRC 660D5E39
Track not present in AccurateRip database
Copy OK

Track 11

Filename C:\Society for New Music - 2005 - American Masters for the 21st Century\Disc 5\11 - Six Dark Questions- VI..wav

Pre-gap length 0:00:01.96

Peak level 97.7 %
Extraction speed 7.3 X
Track quality 100.0 %
Test CRC 734914D3
Copy CRC 734914D3
Track not present in AccurateRip database
Copy OK

Track 12

Filename C:\Society for New Music - 2005 - American Masters for the 21st Century\Disc 5\12 - Wind Through Pines.wav

Pre-gap length 0:00:05.97

Peak level 100.0 %
Extraction speed 9.3 X
Track quality 100.0 %
Test CRC 1D745DF8
Copy CRC 1D745DF8
Track not present in AccurateRip database
Copy OK

Track 13

Filename C:\Society for New Music - 2005 - American Masters for the 21st Century\Disc 5\13 - Dance Mix.wav

Pre-gap length 0:00:05.96

Peak level 100.0 %
Extraction speed 9.8 X
Track quality 100.0 %
Test CRC 34F1CB6C
Copy CRC 34F1CB6C
Track not present in AccurateRip database
Copy OK


None of the tracks are present in the AccurateRip database

No errors occurred

End of status report

==== Log checksum 3A526CBAA15AF05E23470E90C165BC83683E19660DF1BC86068E628C4206CE61 ====

Thanks to the Original ripper ianr !