Subcategories

Solarized - Neanderthal Speedway (1999)

Posted By: Necromandus
Solarized - Neanderthal Speedway (1999)

Solarized - Neanderthal Speedway (1999)
EAC Rip | WV, IMG+CUE+LOG | 340 MB | MP3 CBR 320 Kbps | 110 MB | Complete Scans | 7 MB
Stoner Rock | Label: Man's Ruin Records | Catalog Number: MR076 | RAR 3% Rec. | RS.com

New Jersey stoners Solarized are quite impressive on their 1999 debut, Neanderthal Speedway. The band's sound owes a lot to early Monster Magnet (most notably on "Psyclone Tread," "Black Light Swill," and "February Sixth"), and the album actually features guest appearances by a few Magnet members on "Gravity Well" and the instrumental "Cloud King." In a genre rarely known for its great vocalists, singer Jim Hogan is certainly the band's weak link, but his excellent songwriting on "Shifter" and "Fire-Breather" more than makes up for this. Other highlights include "Aftermath" (with its cool midsection) and the pounding "Nebula Mask."

~ Ed Rivadavia, All Music Guide
"Deploying truckloads of booming fuzz, dayglo guitar licks and big-time spaciness with a masterful touch, Solarized go down a treat in the company of Kyuss, Fu Manchu et al."

~ StonerRock.com
Tracklist:
1. Nebula Mask - 3:52
2. Aftermath - 3:59
3. Firebreather - 4:38
4. Psyclone Tread - 3:07
5. Iron Hide - 2:59
6. February Sixth - 5:00
7. Solar Fang - 3:10
8. Blacklight Swill - 4:31
9. Cloud King - 5:25
10. Shifter - 3:55
11. Gravity Well - 3:01
12. Monolith - 3:08

Exact Audio Copy V0.99 prebeta 4 from 23. January 2008

EAC extraction logfile from 6. May 2009, 14:37

Solarized / Neanderthal Speedway

Used drive : SONY DVD RW AW-G170A Adapter: 0 ID: 0

Read mode : Secure
Utilize accurate stream : Yes
Defeat audio cache : Yes
Make use of C2 pointers : No

Read offset correction : 48
Overread into Lead-In and Lead-Out : No
Fill up missing offset samples with silence : Yes
Delete leading and trailing silent blocks : No
Null samples used in CRC calculations : Yes
Used interface : Installed external ASPI interface

Used output format : Internal WAV Routines
Sample format : 44.100 Hz; 16 Bit; Stereo


TOC of the extracted CD

Track | Start | Length | Start sector | End sector
––––––––––––––––––––––––––––-
1 | 0:00.00 | 3:51.48 | 0 | 17372
2 | 3:51.48 | 3:38.42 | 17373 | 33764
3 | 7:30.15 | 4:37.52 | 33765 | 54591
4 | 12:07.67 | 3:07.06 | 54592 | 68622
5 | 15:14.73 | 2:58.45 | 68623 | 82017
6 | 18:13.43 | 4:59.65 | 82018 | 104507
7 | 23:13.33 | 3:10.15 | 104508 | 118772
8 | 26:23.48 | 4:31.25 | 118773 | 139122
9 | 30:54.73 | 5:25.12 | 139123 | 163509
10 | 36:20.10 | 3:55.23 | 163510 | 181157
11 | 40:15.33 | 3:01.14 | 181158 | 194746
12 | 43:16.47 | 3:08.24 | 194747 | 208870


Range status and errors

Selected range

Filename D:\Music\Solarized - Neanderthal Speedway.wav

Peak level 99.4 %
Range quality 100.0 %
Test CRC B7C4A500
Copy CRC B7C4A500
Copy OK

No errors occurred


AccurateRip summary

Track 1 accurately ripped (confidence 1) [69E0BF57]
Track 2 accurately ripped (confidence 1) [EA7E1DC0]
Track 3 accurately ripped (confidence 1) [12F952E8]
Track 4 accurately ripped (confidence 1) [05A1BBBF]
Track 5 accurately ripped (confidence 1) [5A507832]
Track 6 accurately ripped (confidence 1) [4D42CEC6]
Track 7 accurately ripped (confidence 1) [EF9295B4]
Track 8 accurately ripped (confidence 1) [06CADA3C]
Track 9 accurately ripped (confidence 1) [57729593]
Track 10 accurately ripped (confidence 1) [ED6CA791]
Track 11 accurately ripped (confidence 1) [78DCE367]
Track 12 cannot be verified as accurate (confidence 1) [AFC90C26], AccurateRip returned [B0126213]

11 track(s) accurately ripped
1 track(s) could not be verified as accurate

Some tracks could not be verified as accurate

End of status report

auCDtect: CD records authenticity detector, version 0.8.2
Copyright © 2004 Oleg Berngardt. All rights reserved.
Copyright © 2004 Alexander Djourik. All rights reserved.
––––––––––––––––––––––––––––––
Processing file: [Solarized - Neanderthal Speedway.wav]
Detected average hi-boundary frequency: 2.017934e+004 Hz
Detected average lo-boundary frequency: 1.277230e+004 Hz
Detected average hi-cut frequency: 2.171375e+004 Hz
Detected average lo-cut frequency: 1.331181e+004 Hz
Maximum probablis boundary frequency: 2.189100e+004 Hz
Coefficient of nonlinearity of a phase: 3.874521e-001
First order smothness: 3.111581e-001
Second order smothness: 5.300877e-001

––––––––––––––––––––––––––––––
This track looks like CDDA with probability 100%

––––––––––––––––––––––––––––––
Final Conclusion:
––––––––––––––––––––––––––––––
These tracks looks like CDDA with probability 100%


EAC wavcrc32 v0.22 © ]DichlofoS[ Systems, 2007
thanx to: BakLAN, siro and other beta-testers/contributors!
file opened ok
RIFF header checked ok
please wait while couning checksums…
processing 122816148 samples…
file closed ok
–- used in EAC:
generic: grabbing, "no use…" off [all bytes] : B7C4A500.
generic: grabbing, "no use…" on [word nulsamples l/r] : E6A84306.
waveditor [word nulsamples l] : 75669913.
–- no used in EAC, only for reference:
byte ignore zeros : 1957BCF9.
dword nulsamples : E2C5EF7B.
–-
time elapsed: 21859 ms

Solarized are:
Jim Hogan - guitar, vocals
Pete Hauschild - guitar
Lou Gorra - bass
Reg Santana - Drums

Tim Cronin - percussion, drums on 'Cloud King'
Ed Mundell - additional guitar on 'Cloud King', 'Gravity Well', 'Monolith'

Produced by Jim Hogan
Egineered by Charles Schafer
Recorded at Word Of Mouth, Summer 1998