Subcategories

Sonny Clark Trio - The 1960 Time Sessions with George Duvivier and Max Roach (2018) {2CD Set Tompkins Square TSQ 5579}

Posted By: ruskaval
Sonny Clark Trio - The 1960 Time Sessions with George Duvivier and Max Roach (2018) {2CD Set Tompkins Square TSQ 5579}

Sonny Clark Trio - The 1960 Time Sessions with George Duvivier and Max Roach (2018) {2CD Set Tompkins Square TSQ 5579}
EAC rip (secure mode) | FLAC (tracks)+CUE+LOG -> 598 Mb | MP3 @320 -> 244 Mb | Cover | 5% repair rar
© 1960, 2018 Tompkins Square | TSQ 5579
Jazz / Bop / Hard Bop / Jazz Piano Trio

Sonny Clark’s reputation as one of the finest jazz pianists of his era has grown in recent years, with many folks rediscovering his classic Blue Note recordings like ‘Cool Struttin’, ‘Dial ‘S’ for Sonny’, ‘Leapin’ and Lopin’, as well as session work with Lee Morgan, Grant Green and others. Cut down by heroin addiction at age 31 in 1961, Clark’s legacy continues to expand.

The Time sessions were produced by the late Bob Shad, owner of Time and Mainstream Records. The reissue includes the original Time album re-mastered from the original tapes by Dave Donnelly, plus an extra disc of alternate takes previously unavailable on vinyl.

allaboutjazz.com INFO
tompkinssquare.com INFO


PERSONNEL:

GEORGE DUVIVIER, acoustic bass
MAX ROACH, drums
SONNY CLARK, piano

TRACK LISTING:

CD 1:


01. Minor Meeting
02. Nica
03. Sonny's Crip
04. Blues Mambo
05. Blues Blue
06. Junka
07. My Conception
08. Sonia

CD 2:

01. Nica (take 2)
02. Sonia (take 3)
03. Minor Meeting (take 10)
04. Junka (take 1)
05. Nica (take 4)
06. Minor Meeting (take 9)
07. Sonia (take 5)
08. Blues Blue (take 1)
09. Minor Meeting (false starts takes 1-7)
10. Blues Blue (false start take 2)
11. Nica (false start take 1)
12. Nica (false start take 3)

Exact Audio Copy V1.3 from 2. September 2016

EAC extraction logfile from 20. March 2019, 8:00

Sonny Clark Trio / The 1960 Time Sessions CD1

Used drive : TSSTcorpDVD+-RW SN-208BB Adapter: 1 ID: 0

Read mode : Secure
Utilize accurate stream : Yes
Defeat audio cache : Yes
Make use of C2 pointers : No

Read offset correction : 6
Overread into Lead-In and Lead-Out : No
Fill up missing offset samples with silence : Yes
Delete leading and trailing silent blocks : No
Null samples used in CRC calculations : Yes
Used interface : Native Win32 interface for Win NT & 2000
Gap handling : Appended to previous track

Used output format : User Defined Encoder
Selected bitrate : 1024 kBit/s
Quality : High
Add ID3 tag : No
Command line compressor : C:\Program Files (x86)\Exact Audio Copy\FLAC\FLAC.EXE
Additional command line options : -8 -V -T "ARTIST=%artist%" -T "TITLE=%title%" -T "ALBUM=%albumtitle%" -T "DATE=%year%" -T "TRACKNUMBER=%tracknr%" -T "GENRE=%genre%" -T "PERFORMER=%albuminterpret%" -T "COMPOSER=%composer%" %haslyrics%–tag-from-file=LYRICS="%lyricsfile%"%haslyrics% -T "ALBUMARTIST=%albumartist%" -T "DISCNUMBER=%cdnumber%" -T "TOTALDISCS=%totalcds%" -T "TOTALTRACKS=%numtracks%" -T "COMMENT=%comment%" %source% -o %dest%


TOC of the extracted CD

Track | Start | Length | Start sector | End sector
––––––––––––––––––––––––––––-
1 | 0:00.00 | 3:47.42 | 0 | 17066
2 | 3:47.42 | 6:16.03 | 17067 | 45269
3 | 10:03.45 | 6:17.20 | 45270 | 73564
4 | 16:20.65 | 4:59.11 | 73565 | 96000
5 | 21:20.01 | 4:23.27 | 96001 | 115752
6 | 25:43.28 | 6:15.11 | 115753 | 143888
7 | 31:58.39 | 4:31.59 | 143889 | 164272
8 | 36:30.23 | 5:14.05 | 164273 | 187827


Track 1

Filename Y:\FLAC\Sonny Clark Trio The 1960 Time Sessions\01 Minor Meeting.wav

Pre-gap length 0:00:02.00

Peak level 97.6 %
Extraction speed 1.0 X
Track quality 100.0 %
Test CRC 14843A33
Copy CRC 14843A33
Accurately ripped (confidence 2) [70D2A318] (AR v2)
Copy OK

Track 2

Filename Y:\FLAC\Sonny Clark Trio The 1960 Time Sessions\02 Nica.wav

Pre-gap length 0:00:00.76

Peak level 97.6 %
Extraction speed 1.3 X
Track quality 100.0 %
Test CRC DBD98CB7
Copy CRC DBD98CB7
Accurately ripped (confidence 2) [787C8EAB] (AR v2)
Copy OK

Track 3

Filename Y:\FLAC\Sonny Clark Trio The 1960 Time Sessions\03 Sonny's Crip.wav

Pre-gap length 0:00:01.30

Peak level 97.6 %
Extraction speed 1.4 X
Track quality 100.0 %
Test CRC 2F16BA27
Copy CRC 2F16BA27
Accurately ripped (confidence 2) [70C55709] (AR v2)
Copy OK

Track 4

Filename Y:\FLAC\Sonny Clark Trio The 1960 Time Sessions\04 Blues Mambo.wav

Pre-gap length 0:00:00.74

Peak level 97.6 %
Extraction speed 1.4 X
Track quality 99.9 %
Test CRC 45FEF7F5
Copy CRC 45FEF7F5
Accurately ripped (confidence 2) [BFF4F931] (AR v2)
Copy OK

Track 5

Filename Y:\FLAC\Sonny Clark Trio The 1960 Time Sessions\05 Blues Blue.wav

Pre-gap length 0:00:00.74

Peak level 97.6 %
Extraction speed 1.6 X
Track quality 100.0 %
Test CRC 85BB8C28
Copy CRC 85BB8C28
Accurately ripped (confidence 2) [7E1ECAC8] (AR v2)
Copy OK

Track 6

Filename Y:\FLAC\Sonny Clark Trio The 1960 Time Sessions\06 Junka.wav

Pre-gap length 0:00:00.74

Peak level 97.6 %
Extraction speed 1.6 X
Track quality 99.9 %
Test CRC 2BA866E1
Copy CRC 2BA866E1
Accurately ripped (confidence 2) [109F4414] (AR v2)
Copy OK

Track 7

Filename Y:\FLAC\Sonny Clark Trio The 1960 Time Sessions\07 My Conception.wav

Pre-gap length 0:00:00.74

Peak level 97.6 %
Extraction speed 1.8 X
Track quality 100.0 %
Test CRC A6232EE1
Copy CRC A6232EE1
Accurately ripped (confidence 2) [08F1C7C6] (AR v2)
Copy OK

Track 8

Filename Y:\FLAC\Sonny Clark Trio The 1960 Time Sessions\08 08 Sonia.wav

Pre-gap length 0:00:00.74

Peak level 97.6 %
Extraction speed 1.8 X
Track quality 99.9 %
Test CRC BA5C19CE
Copy CRC BA5C19CE
Accurately ripped (confidence 2) [00E9F440] (AR v2)
Copy OK


All tracks accurately ripped

No errors occurred

End of status report

–– CUETools DB Plugin V2.1.6

[CTDB TOCID: 6wLN1t.JwJY2EBZh1D11aa.Cuvs-] found
Submit result: 6wLN1t.JwJY2EBZh1D11aa.Cuvs- has been confirmed
Track | CTDB Status
1 | (3/3) Accurately ripped
2 | (3/3) Accurately ripped
3 | (3/3) Accurately ripped
4 | (3/3) Accurately ripped
5 | (3/3) Accurately ripped
6 | (3/3) Accurately ripped
7 | (3/3) Accurately ripped
8 | (3/3) Accurately ripped


==== Log checksum 79BAE9DE7C650C83CADE63EB5D9C8174D4314060174B0EED08DCFD01171F4014 ====

––––––––––––––––––––––––––––––

Exact Audio Copy V1.3 from 2. September 2016

EAC extraction logfile from 20. March 2019, 8:00

Sonny Clark Trio / The 1960 Time Sessions CD1

Used drive : TSSTcorpDVD+-RW SN-208BB Adapter: 1 ID: 0

Read mode : Secure
Utilize accurate stream : Yes
Defeat audio cache : Yes
Make use of C2 pointers : No

Read offset correction : 6
Overread into Lead-In and Lead-Out : No
Fill up missing offset samples with silence : Yes
Delete leading and trailing silent blocks : No
Null samples used in CRC calculations : Yes
Used interface : Native Win32 interface for Win NT & 2000
Gap handling : Appended to previous track

Used output format : User Defined Encoder
Selected bitrate : 1024 kBit/s
Quality : High
Add ID3 tag : No
Command line compressor : C:\Program Files (x86)\Exact Audio Copy\FLAC\FLAC.EXE
Additional command line options : -8 -V -T "ARTIST=%artist%" -T "TITLE=%title%" -T "ALBUM=%albumtitle%" -T "DATE=%year%" -T "TRACKNUMBER=%tracknr%" -T "GENRE=%genre%" -T "PERFORMER=%albuminterpret%" -T "COMPOSER=%composer%" %haslyrics%–tag-from-file=LYRICS="%lyricsfile%"%haslyrics% -T "ALBUMARTIST=%albumartist%" -T "DISCNUMBER=%cdnumber%" -T "TOTALDISCS=%totalcds%" -T "TOTALTRACKS=%numtracks%" -T "COMMENT=%comment%" %source% -o %dest%


TOC of the extracted CD

Track | Start | Length | Start sector | End sector
––––––––––––––––––––––––––––-
1 | 0:00.00 | 3:47.42 | 0 | 17066
2 | 3:47.42 | 6:16.03 | 17067 | 45269
3 | 10:03.45 | 6:17.20 | 45270 | 73564
4 | 16:20.65 | 4:59.11 | 73565 | 96000
5 | 21:20.01 | 4:23.27 | 96001 | 115752
6 | 25:43.28 | 6:15.11 | 115753 | 143888
7 | 31:58.39 | 4:31.59 | 143889 | 164272
8 | 36:30.23 | 5:14.05 | 164273 | 187827


Track 1

Filename Y:\FLAC\Sonny Clark Trio The 1960 Time Sessions\01 Minor Meeting.wav

Pre-gap length 0:00:02.00

Peak level 97.6 %
Extraction speed 1.0 X
Track quality 100.0 %
Test CRC 14843A33
Copy CRC 14843A33
Accurately ripped (confidence 2) [70D2A318] (AR v2)
Copy OK

Track 2

Filename Y:\FLAC\Sonny Clark Trio The 1960 Time Sessions\02 Nica.wav

Pre-gap length 0:00:00.76

Peak level 97.6 %
Extraction speed 1.3 X
Track quality 100.0 %
Test CRC DBD98CB7
Copy CRC DBD98CB7
Accurately ripped (confidence 2) [787C8EAB] (AR v2)
Copy OK

Track 3

Filename Y:\FLAC\Sonny Clark Trio The 1960 Time Sessions\03 Sonny's Crip.wav

Pre-gap length 0:00:01.30

Peak level 97.6 %
Extraction speed 1.4 X
Track quality 100.0 %
Test CRC 2F16BA27
Copy CRC 2F16BA27
Accurately ripped (confidence 2) [70C55709] (AR v2)
Copy OK

Track 4

Filename Y:\FLAC\Sonny Clark Trio The 1960 Time Sessions\04 Blues Mambo.wav

Pre-gap length 0:00:00.74

Peak level 97.6 %
Extraction speed 1.4 X
Track quality 99.9 %
Test CRC 45FEF7F5
Copy CRC 45FEF7F5
Accurately ripped (confidence 2) [BFF4F931] (AR v2)
Copy OK

Track 5

Filename Y:\FLAC\Sonny Clark Trio The 1960 Time Sessions\05 Blues Blue.wav

Pre-gap length 0:00:00.74

Peak level 97.6 %
Extraction speed 1.6 X
Track quality 100.0 %
Test CRC 85BB8C28
Copy CRC 85BB8C28
Accurately ripped (confidence 2) [7E1ECAC8] (AR v2)
Copy OK

Track 6

Filename Y:\FLAC\Sonny Clark Trio The 1960 Time Sessions\06 Junka.wav

Pre-gap length 0:00:00.74

Peak level 97.6 %
Extraction speed 1.6 X
Track quality 99.9 %
Test CRC 2BA866E1
Copy CRC 2BA866E1
Accurately ripped (confidence 2) [109F4414] (AR v2)
Copy OK

Track 7

Filename Y:\FLAC\Sonny Clark Trio The 1960 Time Sessions\07 My Conception.wav

Pre-gap length 0:00:00.74

Peak level 97.6 %
Extraction speed 1.8 X
Track quality 100.0 %
Test CRC A6232EE1
Copy CRC A6232EE1
Accurately ripped (confidence 2) [08F1C7C6] (AR v2)
Copy OK

Track 8

Filename Y:\FLAC\Sonny Clark Trio The 1960 Time Sessions\08 08 Sonia.wav

Pre-gap length 0:00:00.74

Peak level 97.6 %
Extraction speed 1.8 X
Track quality 99.9 %
Test CRC BA5C19CE
Copy CRC BA5C19CE
Accurately ripped (confidence 2) [00E9F440] (AR v2)
Copy OK


All tracks accurately ripped

No errors occurred

End of status report

–– CUETools DB Plugin V2.1.6

[CTDB TOCID: 6wLN1t.JwJY2EBZh1D11aa.Cuvs-] found
Submit result: 6wLN1t.JwJY2EBZh1D11aa.Cuvs- has been confirmed
Track | CTDB Status
1 | (3/3) Accurately ripped
2 | (3/3) Accurately ripped
3 | (3/3) Accurately ripped
4 | (3/3) Accurately ripped
5 | (3/3) Accurately ripped
6 | (3/3) Accurately ripped
7 | (3/3) Accurately ripped
8 | (3/3) Accurately ripped


==== Log checksum 79BAE9DE7C650C83CADE63EB5D9C8174D4314060174B0EED08DCFD01171F4014 ====
Exact Audio Copy V1.3 from 2. September 2016

EAC extraction logfile from 20. March 2019, 9:17

Sonny Clark Trio / The 1960 Time Sessions CD2

Used drive : TSSTcorpDVD+-RW SN-208BB Adapter: 1 ID: 0

Read mode : Secure
Utilize accurate stream : Yes
Defeat audio cache : Yes
Make use of C2 pointers : No

Read offset correction : 6
Overread into Lead-In and Lead-Out : No
Fill up missing offset samples with silence : Yes
Delete leading and trailing silent blocks : No
Null samples used in CRC calculations : Yes
Used interface : Native Win32 interface for Win NT & 2000
Gap handling : Appended to previous track

Used output format : User Defined Encoder
Selected bitrate : 1024 kBit/s
Quality : High
Add ID3 tag : No
Command line compressor : C:\Program Files (x86)\Exact Audio Copy\FLAC\FLAC.EXE
Additional command line options : -8 -V -T "ARTIST=%artist%" -T "TITLE=%title%" -T "ALBUM=%albumtitle%" -T "DATE=%year%" -T "TRACKNUMBER=%tracknr%" -T "GENRE=%genre%" -T "PERFORMER=%albuminterpret%" -T "COMPOSER=%composer%" %haslyrics%–tag-from-file=LYRICS="%lyricsfile%"%haslyrics% -T "ALBUMARTIST=%albumartist%" -T "DISCNUMBER=%cdnumber%" -T "TOTALDISCS=%totalcds%" -T "TOTALTRACKS=%numtracks%" -T "COMMENT=%comment%" %source% -o %dest%


TOC of the extracted CD

Track | Start | Length | Start sector | End sector
––––––––––––––––––––––––––––-
1 | 0:00.00 | 6:57.17 | 0 | 31291
2 | 6:57.17 | 4:43.07 | 31292 | 52523
3 | 11:40.24 | 4:04.23 | 52524 | 70846
4 | 15:44.47 | 5:00.60 | 70847 | 93406
5 | 20:45.32 | 6:09.72 | 93407 | 121153
6 | 26:55.29 | 6:06.54 | 121154 | 148657
7 | 33:02.08 | 7:55.13 | 148658 | 184295
8 | 40:57.21 | 7:36.18 | 184296 | 218513
9 | 48:33.39 | 3:19.40 | 218514 | 233478
10 | 51:53.04 | 0:54.49 | 233479 | 237577
11 | 52:47.53 | 1:59.07 | 237578 | 246509
12 | 54:46.60 | 1:07.50 | 246510 | 251584


Track 1

Filename Y:\FLAC\Sonny Clark Trio The 1960 Time Sessions\CD2\01 Nica -take 2.wav

Pre-gap length 0:00:02.00

Peak level 100.0 %
Extraction speed 1.2 X
Track quality 100.0 %
Test CRC 949CE8F9
Copy CRC 949CE8F9
Accurately ripped (confidence 2) [1285E653] (AR v2)
Copy OK

Track 2

Filename Y:\FLAC\Sonny Clark Trio The 1960 Time Sessions\CD2\02 Sonia -take 3.wav

Pre-gap length 0:00:00.76

Peak level 95.4 %
Extraction speed 1.3 X
Track quality 100.0 %
Test CRC 54CE6D1A
Copy CRC 54CE6D1A
Accurately ripped (confidence 2) [C18069CD] (AR v2)
Copy OK

Track 3

Filename Y:\FLAC\Sonny Clark Trio The 1960 Time Sessions\CD2\03 Minor Meeting -take 10.wav

Pre-gap length 0:00:00.76

Peak level 87.0 %
Extraction speed 1.4 X
Track quality 100.0 %
Test CRC D53F1CB6
Copy CRC D53F1CB6
Accurately ripped (confidence 2) [681EC676] (AR v2)
Copy OK

Track 4

Filename Y:\FLAC\Sonny Clark Trio The 1960 Time Sessions\CD2\04 Junka -take 1.wav

Pre-gap length 0:00:00.74

Peak level 97.6 %
Extraction speed 1.4 X
Track quality 99.9 %
Test CRC 98C5095E
Copy CRC 98C5095E
Accurately ripped (confidence 2) [53FA72AA] (AR v2)
Copy OK

Track 5

Filename Y:\FLAC\Sonny Clark Trio The 1960 Time Sessions\CD2\05 Nica -take 4.wav

Pre-gap length 0:00:00.73

Peak level 100.0 %
Extraction speed 1.8 X
Track quality 100.0 %
Test CRC 239FEC72
Copy CRC 239FEC72
Accurately ripped (confidence 2) [E9961E16] (AR v2)
Copy OK

Track 6

Filename Y:\FLAC\Sonny Clark Trio The 1960 Time Sessions\CD2\06 Minor Meeting -take 9.wav

Pre-gap length 0:00:00.74

Peak level 97.6 %
Extraction speed 1.9 X
Track quality 100.0 %
Test CRC BDDD3232
Copy CRC BDDD3232
Accurately ripped (confidence 2) [B5A7CCCD] (AR v2)
Copy OK

Track 7

Filename Y:\FLAC\Sonny Clark Trio The 1960 Time Sessions\CD2\07 Sonia -Take 5.wav

Pre-gap length 0:00:02.00

Peak level 99.8 %
Extraction speed 2.1 X
Track quality 100.0 %
Test CRC D7454705
Copy CRC D7454705
Accurately ripped (confidence 2) [428DA7F7] (AR v2)
Copy OK

Track 8

Filename Y:\FLAC\Sonny Clark Trio The 1960 Time Sessions\CD2\08 Blues Blue Take 1.wav

Pre-gap length 0:00:02.00

Peak level 99.9 %
Extraction speed 2.2 X
Track quality 100.0 %
Test CRC A0410218
Copy CRC A0410218
Accurately ripped (confidence 2) [ECEDA481] (AR v2)
Copy OK

Track 9

Filename Y:\FLAC\Sonny Clark Trio The 1960 Time Sessions\CD2\09 Minor Meeting False Starts.wav

Pre-gap length 0:00:02.00

Peak level 98.8 %
Extraction speed 1.8 X
Track quality 99.9 %
Test CRC 9FD40CBA
Copy CRC 9FD40CBA
Accurately ripped (confidence 2) [9BCBBDD2] (AR v2)
Copy OK

Track 10

Filename Y:\FLAC\Sonny Clark Trio The 1960 Time Sessions\CD2\10 Blues Blue False Start.wav

Pre-gap length 0:00:01.42

Peak level 78.8 %
Extraction speed 1.4 X
Track quality 100.0 %
Test CRC 66CF8920
Copy CRC 66CF8920
Accurately ripped (confidence 2) [41A692C7] (AR v2)
Copy OK

Track 11

Filename Y:\FLAC\Sonny Clark Trio The 1960 Time Sessions\CD2\11 Nica False Start Take 1.wav

Pre-gap length 0:00:01.98

Peak level 98.8 %
Extraction speed 1.9 X
Track quality 100.0 %
Test CRC 1CC18D32
Copy CRC 1CC18D32
Accurately ripped (confidence 2) [EBE5FB4B] (AR v2)
Copy OK

Track 12

Filename Y:\FLAC\Sonny Clark Trio The 1960 Time Sessions\CD2\12 Nica False Start Take 3.wav

Pre-gap length 0:00:01.98

Peak level 98.8 %
Extraction speed 1.6 X
Track quality 100.0 %
Test CRC 00FD9309
Copy CRC 00FD9309
Accurately ripped (confidence 2) [4FF5836F] (AR v2)
Copy OK


All tracks accurately ripped

No errors occurred

End of status report

–– CUETools DB Plugin V2.1.6

[CTDB TOCID: ywnZXwvequVnPaUdUY.KHmadCvQ-] found
Submit result: ywnZXwvequVnPaUdUY.KHmadCvQ- has been confirmed
Track | CTDB Status
1 | (3/3) Accurately ripped
2 | (3/3) Accurately ripped
3 | (3/3) Accurately ripped
4 | (3/3) Accurately ripped
5 | (3/3) Accurately ripped
6 | (3/3) Accurately ripped
7 | (3/3) Accurately ripped
8 | (3/3) Accurately ripped
9 | (3/3) Accurately ripped
10 | (3/3) Accurately ripped
11 | (3/3) Accurately ripped
12 | (3/3) Accurately ripped


==== Log checksum CDDD92CF31078B0A358808274F648856051C11F9AF78DB4AF69AB540391FB011 ====



===