Subcategories

Sonny Fortune - Invitation (1987) {Candid-Whynot WNCD 79420 rel 2010}

Posted By: ruskaval
Sonny Fortune - Invitation (1987) {Candid-Whynot WNCD 79420 rel 2010}

Sonny Fortune - Invitation (1987) {Candid-Whynot WNCD 79420 rel 2010}
EAC rip (secure mode) | FLAC (tracks)+CUE+LOG -> 332 Mb | MP3 @320 -> 130 Mb
Full Artwork @ 300 dpi (jpg) -> 25 Mb | 5% repair rar
© 1987, 2010 Candid / Whynot | WNCD 79420
Jazz / Post Bop / Progressive Jazz / Saxophone / Flute

A rare treat from soulful reed player Sonny Fortune – a session recorded in 1987 in New York, but only ever issued by the Japanese Why Not label. Fortune's alto has this incredibly sharp tone – searching and yearning with a sound that's as great as that heard on any of his 70s recordings. The group's a quartet with Renee Rosnes on piano – but the real talents on the record are Sonny's, as he spiritually blows his way through original compositions like "Real Knowing", "Space In Time", and "5/4 Train", plus an incredible reading of Bronislaw Kaper's "Invitation".

Personnel:
Sonny Fortune - alto saxophone, flute
Renee Rosnes - piano
Kenny Davis - bass
Ronnie Burrage - drums

Recorded: October 13, 1987 NYC

tracklist:
01 - It's A Bird
02 - Space In Time
03 - Jamf
04 - 5/4 Train
05 - Invitation
06 - Real Knowing
07 - Mr. P.C.

Exact Audio Copy V1.0 beta 1 from 15. November 2010

EAC extraction logfile from 3. December 2010, 13:20

Sonny Fortune / Invitation

Used drive : _NEC DVD_RW ND-3520A Adapter: 1 ID: 0

Read mode : Secure
Utilize accurate stream : Yes
Defeat audio cache : Yes
Make use of C2 pointers : No

Read offset correction : 48
Overread into Lead-In and Lead-Out : No
Fill up missing offset samples with silence : Yes
Delete leading and trailing silent blocks : No
Null samples used in CRC calculations : Yes
Used interface : Installed external ASPI interface
Gap handling : Appended to previous track

Used output format : User Defined Encoder
Selected bitrate : 1024 kBit/s
Quality : High
Add ID3 tag : No
Command line compressor : C:\Program Files\Exact Audio Copy\FLAC\FLAC.EXE
Additional command line options : -8 -V -T "ARTIST=%a" -T "TITLE=%t" -T "ALBUM=%g" -T "DATE=%y" -T "TRACKNUMBER=%n" -T "TOTALTRACKS=%x" -T "GENRE=%m" -T "ALBUMARTIST=%v" -T "ALBUM ARTIST=%v" -T "COMMENT=EAC Secure Mode, Test & Copy, AccurateRip, FLAC -8" %s


TOC of the extracted CD

Track | Start | Length | Start sector | End sector
––––––––––––––––––––––––––––-
1 | 0:00.00 | 6:50.35 | 0 | 30784
2 | 6:50.35 | 8:16.45 | 30785 | 68029
3 | 15:07.05 | 8:46.30 | 68030 | 107509
4 | 23:53.35 | 5:46.05 | 107510 | 133464
5 | 29:39.40 | 10:39.25 | 133465 | 181414
6 | 40:18.65 | 9:30.45 | 181415 | 224209
7 | 49:49.35 | 5:53.65 | 224210 | 250749


Track 1

Filename C:\Documents and Settings\All Users\Documents\Uploads\Ex\Sonny Fortune - Invitation (1986) [FLAC]\01 - It's A Bird.wav

Pre-gap length 0:00:02.00

Peak level 85.4 %
Extraction speed 4.2 X
Track quality 100.0 %
Test CRC 6E4DBF76
Copy CRC 6E4DBF76
Track not present in AccurateRip database
Copy OK

Track 2

Filename C:\Documents and Settings\All Users\Documents\Uploads\Ex\Sonny Fortune - Invitation (1986) [FLAC]\02 - Space In Time.wav

Pre-gap length 0:00:01.71

Peak level 57.4 %
Extraction speed 5.0 X
Track quality 100.0 %
Test CRC 33E40C85
Copy CRC 33E40C85
Track not present in AccurateRip database
Copy OK

Track 3

Filename C:\Documents and Settings\All Users\Documents\Uploads\Ex\Sonny Fortune - Invitation (1986) [FLAC]\03 - Jamf.wav

Pre-gap length 0:00:02.20

Peak level 59.7 %
Extraction speed 5.8 X
Track quality 100.0 %
Test CRC 6A396C43
Copy CRC 6A396C43
Track not present in AccurateRip database
Copy OK

Track 4

Filename C:\Documents and Settings\All Users\Documents\Uploads\Ex\Sonny Fortune - Invitation (1986) [FLAC]\04 - 5,4 Train.wav

Pre-gap length 0:00:02.05

Peak level 78.4 %
Extraction speed 6.1 X
Track quality 100.0 %
Test CRC 2E9DE86C
Copy CRC 2E9DE86C
Track not present in AccurateRip database
Copy OK

Track 5

Filename C:\Documents and Settings\All Users\Documents\Uploads\Ex\Sonny Fortune - Invitation (1986) [FLAC]\05 - Invitation.wav

Pre-gap length 0:00:02.00

Peak level 85.1 %
Extraction speed 6.9 X
Track quality 100.0 %
Test CRC E3F1283F
Copy CRC E3F1283F
Track not present in AccurateRip database
Copy OK

Track 6

Filename C:\Documents and Settings\All Users\Documents\Uploads\Ex\Sonny Fortune - Invitation (1986) [FLAC]\06 - Real Knowing.wav

Pre-gap length 0:00:01.55

Peak level 77.7 %
Extraction speed 7.4 X
Track quality 100.0 %
Test CRC 13EC855F
Copy CRC 13EC855F
Track not present in AccurateRip database
Copy OK

Track 7

Filename C:\Documents and Settings\All Users\Documents\Uploads\Ex\Sonny Fortune - Invitation (1986) [FLAC]\07 - Mr. P.C..wav

Pre-gap length 0:00:02.00

Peak level 66.8 %
Extraction speed 7.6 X
Track quality 100.0 %
Test CRC 71B58F38
Copy CRC 71B58F38
Track not present in AccurateRip database
Copy OK


None of the tracks are present in the AccurateRip database

No errors occurred

End of status report

==== Log checksum 47575EC95C7A67E786A1F042C3B31C6F6026C41B673594E0FB173313B0703E33 ====


Sonny Fortune - Invitation (1987) {Candid-Whynot WNCD 79420 rel 2010}

Sonny Fortune - Invitation (1987) {Candid-Whynot WNCD 79420 rel 2010}


===