Subcategories

Sonny Stitt - Moonlight In Vermont (1977) {Denon Japan 38C38-7046 rel 1983}

Posted By: ruskaval
Sonny Stitt - Moonlight In Vermont (1977) {Denon Japan 38C38-7046 rel 1983}

Sonny Stitt - Moonlight In Vermont (1977) {Denon Japan 38C38-7046 rel 1983}
EAC rip (secure mode) | FLAC (tracks)+CUE+LOG -> 228 Mb | MP3 @320 -> 91 Mb
Full Artwork @ 300 dpi (jpg) -> 9 Mb | 5% repair rar
© 1977, 1983 Denon / Nippon Columbia | 38C38-7046
Jazz / Bop / Saxophone

Sonny Stitt, doubling on alto and tenor, is in fine form on this quartet session (a Japanese import CD) with either Barry Harris or Walter Davis on piano, bassist Reggie Workman and drummer Tony Williams. The repertoire (bop standards, blues and ballads) is fairly typical and nothing too unusual occurs, but fans of straightahead jazz in general and Sonny Stitt in particular will be satisfied with this above-average effort, highlighted by "It Might as Well Be Spring" and "Constellation."

Personnel:
Sonny Stitt - alto sax, tenor sax
Barry Harris - piano
Reggie Workman - bass
Tony Williams - drums
Walter Davis - piano (*)

Recorded November 25, 1977

tracklist:
01 - West 46th Street
02 - Who Can I Turn To
03 - Moonlight In Vermont
04 - Flight Cap Blues (*)
05 - It Might As Well Be Spring
06 - Constellation
07 - Blues For PCM

Exact Audio Copy V1.2 from 12. August 2016

EAC extraction logfile from 7. March 2017, 13:50

Sonny Stitt / Moonlight In Vermont

Used drive : hp CDDVDW SN-208BB Adapter: 1 ID: 0

Read mode : Secure
Utilize accurate stream : Yes
Defeat audio cache : Yes
Make use of C2 pointers : No

Read offset correction : 6
Overread into Lead-In and Lead-Out : No
Fill up missing offset samples with silence : Yes
Delete leading and trailing silent blocks : No
Null samples used in CRC calculations : Yes
Used interface : Native Win32 interface for Win NT & 2000
Gap handling : Appended to previous track

Used output format : User Defined Encoder
Selected bitrate : 128 kBit/s
Quality : High
Add ID3 tag : No
Command line compressor : C:\Program Files (x86)\Exact Audio Copy\Flac\flac.exe
Additional command line options : -8 -V -T "ARTIST=%artist%" -T "TITLE=%title%" -T "ALBUM=%albumtitle%" -T "DATE=%year%" -T "TRACKNUMBER=%tracknr%" -T "TOTALTRACKS=%numtracks%" -T "GENRE=%genre%" -T "ALBUMARTIST=%albumartist%" -T "ALBUM ARTIST=%albumartist%" -T "COMMENT=EAC Secure Mode, Test & Copy, AccurateRip, FLAC -8" %source%


TOC of the extracted CD

Track | Start | Length | Start sector | End sector
––––––––––––––––––––––––––––-
1 | 0:00.00 | 5:33.40 | 0 | 25014
2 | 5:33.40 | 4:24.12 | 25015 | 44826
3 | 9:57.52 | 4:41.53 | 44827 | 65954
4 | 14:39.30 | 4:40.37 | 65955 | 86991
5 | 19:19.67 | 6:47.65 | 86992 | 117581
6 | 26:07.57 | 3:34.35 | 117582 | 133666
7 | 29:42.17 | 8:30.60 | 133667 | 171976


Track 1

Filename D:\EAC\01 - West 46th Street.wav

Pre-gap length 0:00:02.00

Peak level 75.1 %
Extraction speed 2.3 X
Track quality 100.0 %
Test CRC 44FB302A
Copy CRC 44FB302A
Accurately ripped (confidence 3) [79B270E9] (AR v2)
Copy OK

Track 2

Filename D:\EAC\02 - Who Can I Turn To.wav

Pre-gap length 0:00:00.40

Peak level 74.1 %
Extraction speed 2.5 X
Track quality 100.0 %
Test CRC 7907157D
Copy CRC 7907157D
Accurately ripped (confidence 3) [AC6573F7] (AR v2)
Copy OK

Track 3

Filename D:\EAC\03 - Moonlight In Vermont.wav

Pre-gap length 0:00:01.01

Peak level 64.0 %
Extraction speed 2.8 X
Track quality 100.0 %
Test CRC E6FF0659
Copy CRC E6FF0659
Accurately ripped (confidence 3) [5F4215CC] (AR v2)
Copy OK

Track 4

Filename D:\EAC\04 - Flight Cap Blues.wav

Pre-gap length 0:00:02.36

Peak level 89.6 %
Extraction speed 2.4 X
Track quality 99.9 %
Test CRC A64EAD5B
Copy CRC A64EAD5B
Accurately ripped (confidence 3) [E70B75D5] (AR v2)
Copy OK

Track 5

Filename D:\EAC\05 - It Might As Well Be Spring.wav

Pre-gap length 0:00:01.65

Peak level 96.0 %
Extraction speed 3.3 X
Track quality 100.0 %
Test CRC FDCD8180
Copy CRC FDCD8180
Accurately ripped (confidence 3) [D60EECD5] (AR v2)
Copy OK

Track 6

Filename D:\EAC\06 - Constellation.wav

Pre-gap length 0:00:02.43

Peak level 74.9 %
Extraction speed 2.6 X
Track quality 99.9 %
Test CRC B4C66013
Copy CRC B4C66013
Accurately ripped (confidence 3) [251A8F52] (AR v2)
Copy OK

Track 7

Filename D:\EAC\07 - Blues For PCM.wav

Pre-gap length 0:00:01.65

Peak level 77.1 %
Extraction speed 3.9 X
Track quality 100.0 %
Test CRC 9553CE42
Copy CRC 9553CE42
Accurately ripped (confidence 3) [8300E48E] (AR v2)
Copy OK


All tracks accurately ripped

No errors occurred

End of status report

–– CUETools DB Plugin V2.1.6

[CTDB TOCID: nABBG_kcE61BUs6NVZU.VJgZQco-] found
Submit result: nABBG_kcE61BUs6NVZU.VJgZQco- has been confirmed
Track | CTDB Status
1 | (15/15) Accurately ripped
2 | (15/15) Accurately ripped
3 | (15/15) Accurately ripped
4 | (15/15) Accurately ripped
5 | (15/15) Accurately ripped
6 | (15/15) Accurately ripped
7 | (15/15) Accurately ripped


==== Log checksum DF5ADA17849C96BD1DBB30C6FE48E16FAA72BE4854F4D558C5C789F42883E775 ====


Sonny Stitt - Moonlight In Vermont (1977) {Denon Japan 38C38-7046 rel 1983}

Sonny Stitt - Moonlight In Vermont (1977) {Denon Japan 38C38-7046 rel 1983}



===