Subcategories

Stafrænn Hákon - Hausi (2017)

Posted By: delpotro
Stafrænn Hákon - Hausi (2017)

Stafrænn Hákon - Hausi (2017)
EAC Rip | FLAC (tracks+log+.cue) | 00:41:58 | 266 Mb
Post-Rock | Label: Vogor Records

Hausi is a definite change of direction for the band. The band has evolved considerably in recent years from being Ólafur Josephsson’s alter ego into a full four-piece band. Now, Stafrænn Hákon has finally formed a solid core and finds a certain balance that suits all member sof the band. After the band’s last album, Eternal Horse, which consisted of vocal ballads, flowing pop-oriented songs and the occasional traditional, heavy tracks in between, a deeper, darker tone will be prevalent this time. The band’s distinctive sound can still be heard in this natural, instrumental form and the outcome will not disappoint. Lárus Sigurðsson's delicate touch of the harp is the source of the album and through it the foundation of the composition is clear.

It is evident that Hausi's sound is to some extent reminiscent of Stafrænn Hákon’s album Ventill / Poki from 2004; Here, however, the compositions are more mature and sophisticated. Árni Þór, bass player, picks up the baritone bass guitar on this album, creating a very tight, but also melodic tone. Melodic layers of cello and trombone are also heavily involved in the sound, thanks to Þórður Hermannsson and Þröstur Sigurðsson respectively. Hausi's texture is seductive, but the band maintains a heavy feel that will not disappoint a true rock hound. The dynamic sound and feel is therefore the main feature of this band's 10th album.

As before, Lárus Sigurdsson plays the harp and piano, Árni Þór Árnason takes care of bass and baritone guitars, Ólafur Josephsson handles guitar, programming and keyboards and Róbert Már Runólfsson strikes the drums. Þórður Hermannsson then decorates Hausi with his cello and Þröstur Sigurðsson blasts the trombone like a true soldier.
Tracklist:
1. Rafall 04:31
2. Duft 03:49
3. Straumur 04:12
4. Djákni 03:44
5. Strimill 04:50
6. Pollur 06:48
7. 7/4 Önd 03:53
8. Hulsa 05:38
9. Gesta 04:27

Exact Audio Copy V1.1 from 23. June 2015

EAC extraction logfile from 25. February 2018, 1:55

Stafrænn Hákon / Hausi

Used drive : ASUS DRW-24D5MT Adapter: 1 ID: 0

Read mode : Secure
Utilize accurate stream : Yes
Defeat audio cache : Yes
Make use of C2 pointers : No

Read offset correction : 6
Overread into Lead-In and Lead-Out : No
Fill up missing offset samples with silence : Yes
Delete leading and trailing silent blocks : No
Null samples used in CRC calculations : Yes
Used interface : Native Win32 interface for Win NT & 2000
Gap handling : Appended to previous track

Used output format : User Defined Encoder
Selected bitrate : 1024 kBit/s
Quality : High
Add ID3 tag : No
Command line compressor : C:\Program Files (x86)\Exact Audio Copy\FLAC\FLAC.EXE
Additional command line options : -8 -e -V -T "ARTIST=%artist%" -T "TITLE=%title%" -T "ALBUM=%albumtitle%" -T "DATE=%year%" -T "TRACKNUMBER=%tracknr%" -T "GENRE=%genre%" -T "PERFORMER=%albuminterpret%" -T "COMPOSER=%composer%" %haslyrics%–tag-from-file=LYRICS="%lyricsfile%"%haslyrics% -T "ALBUMARTIST=%albumartist%" -T "DISCNUMBER=%cdnumber%" -T "TOTALDISCS=%totalcds%" -T "TOTALTRACKS=%numtracks%" -T "COMMENT=%comment%" %source% -o %dest%


TOC of the extracted CD

Track | Start | Length | Start sector | End sector
––––––––––––––––––––––––––––-
1 | 0:00.00 | 4:34.05 | 0 | 20554
2 | 4:34.05 | 3:49.39 | 20555 | 37768
3 | 8:23.44 | 4:12.06 | 37769 | 56674
4 | 12:35.50 | 3:44.19 | 56675 | 73493
5 | 16:19.69 | 4:50.20 | 73494 | 95263
6 | 21:10.14 | 6:48.67 | 95264 | 125930
7 | 27:59.06 | 3:53.35 | 125931 | 143440
8 | 31:52.41 | 5:38.36 | 143441 | 168826
9 | 37:31.02 | 4:27.58 | 168827 | 188909


Track 1

Filename F:\CD Rips\01 - Rafall.wav

Pre-gap length 0:00:02.00

Peak level 97.7 %
Extraction speed 1.0 X
Track quality 100.0 %
Test CRC 92B0EBC5
Copy CRC 92B0EBC5
Track not present in AccurateRip database
Copy OK

Track 2

Filename F:\CD Rips\02 - Duft.wav

Pre-gap length 0:00:02.01

Peak level 97.7 %
Extraction speed 1.1 X
Track quality 100.0 %
Test CRC 1248E091
Copy CRC 1248E091
Track not present in AccurateRip database
Copy OK

Track 3

Filename F:\CD Rips\03 - Straumur.wav

Pre-gap length 0:00:02.76

Peak level 100.0 %
Extraction speed 1.2 X
Track quality 100.0 %
Test CRC EF44A69D
Copy CRC EF44A69D
Track not present in AccurateRip database
Copy OK

Track 4

Filename F:\CD Rips\04 - Djákni.wav

Pre-gap length 0:00:02.01

Peak level 97.7 %
Extraction speed 1.3 X
Track quality 100.0 %
Test CRC 37AF95ED
Copy CRC 37AF95ED
Track not present in AccurateRip database
Copy OK

Track 5

Filename F:\CD Rips\05 - Strimill.wav

Pre-gap length 0:00:02.62

Peak level 97.7 %
Extraction speed 1.4 X
Track quality 100.0 %
Test CRC 5AB0AABB
Copy CRC 5AB0AABB
Track not present in AccurateRip database
Copy OK

Track 6

Filename F:\CD Rips\06 - Pollur.wav

Pre-gap length 0:00:02.05

Peak level 97.7 %
Extraction speed 1.6 X
Track quality 100.0 %
Test CRC E24EC4AB
Copy CRC E24EC4AB
Track not present in AccurateRip database
Copy OK

Track 7

Filename F:\CD Rips\07 - 7,4 Önd.wav

Pre-gap length 0:00:02.76

Peak level 97.7 %
Extraction speed 1.6 X
Track quality 100.0 %
Test CRC 7F86D280
Copy CRC 7F86D280
Track not present in AccurateRip database
Copy OK

Track 8

Filename F:\CD Rips\08 - Hulsa.wav

Pre-gap length 0:00:02.76

Peak level 97.7 %
Extraction speed 1.8 X
Track quality 100.0 %
Test CRC 33CD4093
Copy CRC 33CD4093
Track not present in AccurateRip database
Copy OK

Track 9

Filename F:\CD Rips\09 - Gesta.wav

Pre-gap length 0:00:02.76

Peak level 97.7 %
Extraction speed 1.8 X
Track quality 100.0 %
Test CRC 38204B8D
Copy CRC 38204B8D
Track not present in AccurateRip database
Copy OK


None of the tracks are present in the AccurateRip database

No errors occurred

End of status report

–– CUETools DB Plugin V2.1.6

[CTDB TOCID: zXaZULa6prFUAWHRdduKPaktyes-] disk not present in database
Submit result: zXaZULa6prFUAWHRdduKPaktyes- has been uploaded


==== Log checksum AB0A9EF363929D5CC1A40F4A8F1A500C42B4BF80000041F429FC3F1011637BEA ====

Thanks to the Original ripper Rampandit !