Subcategories

The Stan Getz Quartet - The Dolphin (1981) [Remastered 2002]

Posted By: Bezz
The Stan Getz Quartet - The Dolphin (1981) [Remastered 2002]

The Stan Getz Quartet - The Dolphin (1981) [Remastered 2002]
EAC rip | FLAC+CUE+LOG | Scans | 294 Mb(Incl. Recovery)
Genre ~ Post-Bop, Mainstream Jazz, Saxophone Jazz | Label ~ Concord Jazz Records

Stan Getz's first recording for Concord finds him returning to the strictly acoustic straightahead format, performing six standards with a quartet comprised of pianist Lou Levy, bassist Monty Budwig and drummer Victor Lewis. Getz is in particularly fine form on the title cut, "Joy Spring" and "The Night Has a Thousand Eyes." ~ AllMusic
Tracklist

[09:49] 01. The Dolphin
[06:40] 02. A Time For Love
[09:40] 03. Joy Spring
[06:36] 04. My Old Flame
[08:24] 05. The Night Has A Thousand Eyes
[07:07] 06. Close Enough For Love

Exact Audio Copy V1.0 beta 3 from 29. August 2011

Отчёт EAC об извлечении, выполненном 24. января 2012, 0:51

Stan Getz / The Dolphin

Дисковод: HL-DT-STDVD-RAM GH22NP21 Adapter: 0 ID: 0

Режим чтения : Достоверность
Использование точного потока : Да
Отключение кэша аудио : Да
Использование указателей C2 : Нет

Коррекция смещения при чтении : 102
Способность читать области Lead-in и Lead-out : Нет
Заполнение пропущенных сэмплов тишиной : Да
Удаление блоков с тишиной в начале и конце : Нет
При вычислениях CRC использовались нулевые сэмплы : Да
Интерфейс : Встроенный Win32-интерфейс для Win NT/2000

Выходной формат : Пользовательский кодировщик
Выбранный битрейт : 1024 kBit/s
Качество : Высокий
Добавление ID3-тега : Нет
Утилита сжатия : C:\Program Files\Exact Audio Copy\FLAC\FLAC.EXE
Дополнительные параметры : -8 -V -T "ARTIST=%artist%" -T "TITLE=%title%" -T "ALBUM=%albumtitle%" -T "DATE=%year%" -T "TRACKNUMBER=%tracknr%" -T "GENRE=%genre%" -T "COMMENT=%comment%" %hascover%–picture="%coverfile%"%hascover% %source% -o %dest%

TOC извлечённого CD

Трек | Старт | Длительность | Начальный сектор | Конечный сектор
––––––––––––––––––––––––––––––––––-
1 | 0:00.00 | 9:49.20 | 0 | 44194
2 | 9:49.20 | 6:40.60 | 44195 | 74254
3 | 16:30.05 | 9:40.23 | 74255 | 117777
4 | 26:10.28 | 6:36.70 | 117778 | 147547
5 | 32:47.23 | 8:24.05 | 147548 | 185352
6 | 41:11.28 | 7:07.67 | 185353 | 217444

Характеристики диапазона извлечения и сообщения об ошибках

Выбранный диапазон

Имя файла D:\Раздачи на torrents.ru\Stan Getz - The Dolphin 1981 (lossless)\Stan Getz - The Dolphin.wav

Пиковый уровень 97.9 %
Скорость извлечения 2.5 X
Качество диапазона 100.0 %
CRC теста 53DA514F
CRC копии 53DA514F
Копирование… OK

Ошибок не произошло

AccurateRip: сводка

Трек 1 отсутствует в базе данных
Трек 2 отсутствует в базе данных
Трек 3 отсутствует в базе данных
Трек 4 отсутствует в базе данных
Трек 5 отсутствует в базе данных
Трек 6 отсутствует в базе данных

Ни одного трека нет в базе AccurateRip

Конец отчёта

==== Контрольная сумма отчёта 2472E235298AB5D69445ED176E23947D61CB3D33943FEAFA413F9ACBA78E8FB9 ====

The Stan Getz Quartet - The Dolphin (1981) [Remastered 2002]

The Stan Getz Quartet - The Dolphin (1981) [Remastered 2002]

Special thanks to 40years!

Welcome to my blog for more wonderful music

PLEASE DO NOT PROVIDE MIRROR LINKS!