Subcategories

Stan Getz - East Of The Sun: The West Coast Sessions (1955-57) [3CD] {1996 Verve Remaster} [repost]

Posted By: ruskaval
Stan Getz - East Of The Sun: The West Coast Sessions (1955-57) [3CD] {1996 Verve Remaster} [repost]

Stan Getz - East Of The Sun: The West Coast Sessions (1955-57) [3CD] {1996 Verve Remaster}
EAC rip (secure mode) | FLAC (tracks)+CUE+LOG -> 726 Mb | MP3 @320 -> 491 Mb
Full Artwork @ 300 dpi (jpg) -> 43 Mb | 5% repair rar
© 1996 Verve / PolyGram | 314 531 935-2
Jazz / Cool / Bop / West Coast Jazz / Saxophone

The mainstream came to know this remarkable tenor sax player via bossa nova – his unforgettable, breathy solo on "The Girl from Ipanema" propelled the song to number five in 1964 and to continued popularity to this very day, every bit as much as Astrud Gilberto's equally stunning, spare voice. But Stan Getz's involvement in this populist '60s craze actually displeased many a serious jazz enthusiast who'd admired his work in that field for more than two decades. After all, this 17-time winner of the Down Beat poll for top tenor saxophonist had already staked out a remarkable reputation, playing in the bands of such vaunted names as Stan Kenton, Jimmy Dorsey, Benny Goodman, and Woody Herman from 1944-1949, and then leading his own bands thereafter. This three-CD box, then, finds Getz in top form as a jazz soloist and bandleader.

Recorded, as so much jazz was, in various off-the-cuff sessions from 1955-1957 – although this box culls from different LPs such as West Coast Jazz, Stan Getz and the Cool Sounds, and The Steamer – it still all fits together as one long, languid, bop-to-bluesy session. Fusion beckoned to many a talent of the time, but Getz nicely held his ground, insisting that long, wide-stretching solos always serve a well-grounded song, be it a composition by George and Ira Gershwin, Miles Davis, Jimmy Van Heusen, or himself. With an almost unparalleled sense of time and space, Getz fills it in no particular hurry, and his piano, trumpet, bass, and drums likewise seem inclined to be tasteful rather than showoff-ish virtuosity. The slow, quiet-afternoon melancholic stuff, such as "A Handful of Stars," are the real favorites. Like "Girl from Ipanema," these allow Getz to blow like the gentle lull before a storm or, as original pianist Lou Levy writes in the notes here 40 years later, like "a sound of an angel." But the man is a master of all the styles presented, and an overriding cool, calm, pleasant air nicely defines these spontaneous yet well-organized sessions. This box is a fitting legacy and a thorough overview of an inspired period in his prolific career.

Digitally remastered by Chris Herles (Polygram Studios).
Recorded at Radio Recorders and Capitol Studios, Hollywood, California between August 9, 1955 and August 2, 1957.
Includes liner notes by Lou Levy and Ted Gioia.
Producer: Norman Granz. Compilation producer: Michael Lang.

EAST OF THE SUN: THE WEST COAST SESSIONS was nominated for a 1997 Grammy Award for Best Recording Package.


Personnel: Stan Getz (tenor saxophone); Conte Candoli (trumpet); Lou Levy (piano); Leroy Vinnegar (bass); Stan Levey, Shelly Manne (drums).

tracklist:
CD1:

01. Four
02. Split Kick
03. East of the Sun (And West of the Moon)
04. A Night in Tunisia
05. Suddenly It's Spring
06. Summertime
07. S-h-i-n-e
08. Of Thee I Sing (take 1 partial)
09. Of Thee I Sing (take 2)
10. Of Thee I Sing (take 3 master)
11. Of Thee I Sing (take 4 partial)
12. Of Thee I Sing (take 5)
13. Of Thee I Sing (take 6)

CD2:
01. A Handful of Stars
02. Love Is Here to Stay (take 1)
03. Love Is Here to Stay (take 2)
04. Serenade in Blue
05. Blues for Mary Jane
06. There Will Never Be Another You
07. You're Blasé
08. Too Close for Comfort
09. Like Someone in Love
10. How About You? (take 1)
11. How About You? (take 2 partial)
12. How About You? (take 3 master)

CD3:
01. Where or When
02. Woody 'N You (take 1)
03. Woody 'N You (take 2 master)
04. Woody 'N You (take 3 partial)
05. Smiles
06. Three Little Words
07. But Beautiful
08. All God's Chillun Got Rhythm (take 1 master)
09. All God's Chillun Got Rhythm (take 2)
10. Time After Time (take 1)
11. Time After Time (take 2 master)
12. This Can't Be Love

EAC extraction logfile from 26. February 2011, 16:57 for CD
Stan Getz / East Of The Sun - The West Coast Sessions [disc 1]

Used drive : HP DVD Writer 1170d Adapter: 1 ID: 1
Read mode : Secure with NO C2, accurate stream, disable cache
Read offset correction : 6
Overread into Lead-In and Lead-Out : No

Used output format : C:\Program Files\FLAC\flac.exe (User Defined Encoder)
128 kBit/s
Additional command line options : -8 -V -T "ARTIST=%a" -T "TITLE=%t" -T "ALBUM=%g" -T "DATE=%y" -T "TRACKNUMBER=%n" -T "TOTALTRACKS=%x" -T "GENRE=%m" -T "ALBUM ARTIST=%v" -T "ALBUMARTIST=%v" -T "COMMENT=EAC V0.99 prebeta 4, Secure Mode,

Other options :
Fill up missing offset samples with silence : Yes
Delete leading and trailing silent blocks : No
Installed external ASPI interface


Track 1
Filename C:\Documents and Settings\getz\CD 1\01 - Four.wav

Pre-gap length 0:00:02.00

Peak level 97.8 %
Track quality 100.0 %
Test CRC 2CA5B2A0
Copy CRC 2CA5B2A0
Copy OK

Track 2
Filename C:\Documents and Settings\getz\CD 1\02 - Split Kick.wav

Pre-gap length 0:00:02.02

Peak level 99.9 %
Track quality 100.0 %
Test CRC 8E3B7EE7
Copy CRC 8E3B7EE7
Copy OK

Track 3
Filename C:\Documents and Settings\getz\CD 1\03 - East Of The Sun (And West Of The Moon).wav

Pre-gap length 0:00:02.53

Peak level 99.9 %
Track quality 100.0 %
Test CRC CE95B462
Copy CRC CE95B462
Copy OK

Track 4
Filename C:\Documents and Settings\getz\CD 1\04 - A Night In Tunesia.wav

Pre-gap length 0:00:02.44

Peak level 91.6 %
Track quality 100.0 %
Test CRC A211632B
Copy CRC A211632B
Copy OK

Track 5
Filename C:\Documents and Settings\getz\CD 1\05 - Suddenly It's Spring.wav

Pre-gap length 0:00:01.60

Peak level 86.6 %
Track quality 100.0 %
Test CRC 7D9A34A5
Copy CRC 7D9A34A5
Copy OK

Track 6
Filename C:\Documents and Settings\getz\CD 1\06 - Summertime.wav

Pre-gap length 0:00:01.84

Peak level 84.9 %
Track quality 100.0 %
Test CRC 86AC64EA
Copy CRC 86AC64EA
Copy OK

Track 7
Filename C:\Documents and Settings\getz\CD 1\07 - S-h-i-n-e.wav

Pre-gap length 0:00:02.53

Peak level 100.0 %
Track quality 100.0 %
Test CRC 464B7DDC
Copy CRC 464B7DDC
Copy OK

Track 8
Filename C:\Documents and Settings\getz\CD 1\08 - Of Thee I Sing [take 1 partial].wav

Pre-gap length 0:00:02.37

Peak level 90.4 %
Track quality 100.0 %
Test CRC 0E5C1E85
Copy CRC 0E5C1E85
Copy OK

Track 9
Filename C:\Documents and Settings\getz\CD 1\09 - Of Thee I Sing [take 2].wav

Pre-gap length 0:00:07.57

Peak level 81.8 %
Track quality 100.0 %
Test CRC 2430C4DC
Copy CRC 2430C4DC
Copy OK

Track 10
Filename C:\Documents and Settings\getz\CD 1\10 - Of Thee I Sing [take 3 master].wav

Pre-gap length 0:00:13.16

Peak level 94.7 %
Track quality 99.9 %
Test CRC 0F8434B2
Copy CRC 0F8434B2
Copy OK

Track 11
Filename C:\Documents and Settings\getz\CD 1\11 - Of Thee I Sing [take 4 partial].wav

Pre-gap length 0:00:08.80

Peak level 92.2 %
Track quality 100.0 %
Test CRC BBCD5303
Copy CRC BBCD5303
Copy OK

Track 12
Filename C:\Documents and Settings\getz\CD 1\12 - Of Thee I Sing [take 5].wav

Pre-gap length 0:00:05.66

Peak level 100.0 %
Track quality 100.0 %
Test CRC E1A03C43
Copy CRC E1A03C43
Copy OK

Track 13
Filename C:\Documents and Settings\getz\CD 1\13 - Of Thee I Sing [take 6].wav

Pre-gap length 0:00:05.89

Peak level 92.1 %
Track quality 100.0 %
Test CRC CDA0408E
Copy CRC CDA0408E
Copy OK

No errors occured


End of status report

EAC extraction logfile from 26. February 2011, 18:59 for CD
Stan Getz / East Of The Sun - The West Coast Sessions [disc 2]

Used drive : HP DVD Writer 1170d Adapter: 1 ID: 1
Read mode : Secure with NO C2, accurate stream, disable cache
Read offset correction : 6
Overread into Lead-In and Lead-Out : No

Used output format : C:\Program Files\FLAC\flac.exe (User Defined Encoder)
128 kBit/s
Additional command line options : -8 -V -T "ARTIST=%a" -T "TITLE=%t" -T "ALBUM=%g" -T "DATE=%y" -T "TRACKNUMBER=%n" -T "TOTALTRACKS=%x" -T "GENRE=%m" -T "ALBUM ARTIST=%v" -T "ALBUMARTIST=%v" -T "COMMENT=EAC V0.99 prebeta 4, Secure Mode,

Other options :
Fill up missing offset samples with silence : Yes
Delete leading and trailing silent blocks : No
Installed external ASPI interface


Track 1
Filename C:\Documents and Settings\getz\CD 2\01 - A Handful Of Stars.wav

Pre-gap length 0:00:02.42

Peak level 99.9 %
Track quality 100.0 %
Test CRC 0E33DEAC
Copy CRC 0E33DEAC
Copy OK

Track 2
Filename C:\Documents and Settings\getz\CD 2\02 - Love Is Here To Stay [take 1].wav

Pre-gap length 0:02:17.26

Peak level 96.9 %
Track quality 99.9 %
Test CRC C62B3630
Copy CRC C62B3630
Copy OK

Track 3
Filename C:\Documents and Settings\getz\CD 2\03 - Love Is Here To Stay [take 2].wav

Pre-gap length 0:00:16.33

Peak level 100.0 %
Track quality 100.0 %
Test CRC BFE834BD
Copy CRC BFE834BD
Copy OK

Track 4
Filename C:\Documents and Settings\getz\CD 2\04 - Serenade In Blue.wav

Pre-gap length 0:00:06.20

Peak level 95.3 %
Track quality 100.0 %
Test CRC 97A1AFD5
Copy CRC 97A1AFD5
Copy OK

Track 5
Filename C:\Documents and Settings\getz\CD 2\05 - Blues For Mary Jane.wav

Pre-gap length 0:00:16.77

Peak level 96.7 %
Track quality 100.0 %
Test CRC DF910A32
Copy CRC DF910A32
Copy OK

Track 6
Filename C:\Documents and Settings\getz\CD 2\06 - There Will Never Be Another You.wav

Pre-gap length 0:01:04.42

Peak level 100.0 %
Track quality 100.0 %
Test CRC 75DF8868
Copy CRC 75DF8868
Copy OK

Track 7
Filename C:\Documents and Settings\getz\CD 2\07 - You're Blase.wav

Pre-gap length 0:00:55.96

Peak level 75.0 %
Track quality 99.9 %
Test CRC 97E303A0
Copy CRC 97E303A0
Copy OK

Track 8
Filename C:\Documents and Settings\getz\CD 2\08 - Too Close For Comfort.wav

Pre-gap length 0:00:02.96

Peak level 93.0 %
Track quality 100.0 %
Test CRC 04289FB1
Copy CRC 04289FB1
Copy OK

Track 9
Filename C:\Documents and Settings\getz\CD 2\09 - Like Someone In Love.wav

Pre-gap length 0:00:40.13

Peak level 98.2 %
Track quality 100.0 %
Test CRC DBFB8BE8
Copy CRC DBFB8BE8
Copy OK

Track 10
Filename C:\Documents and Settings\getz\CD 2\10 - How About You [take 1].wav

Pre-gap length 0:00:58.26

Peak level 83.1 %
Track quality 100.0 %
Test CRC 32D8F7B2
Copy CRC 32D8F7B2
Copy OK

Track 11
Filename C:\Documents and Settings\getz\CD 2\11 - How About You [take 2 partial].wav

Pre-gap length 0:00:17.20

Peak level 75.8 %
Track quality 100.0 %
Test CRC 4DBF34F7
Copy CRC 4DBF34F7
Copy OK

Track 12
Filename C:\Documents and Settings\getz\CD 2\12 - How About You [take 3 master].wav

Pre-gap length 0:00:11.13

Peak level 100.0 %
Track quality 100.0 %
Test CRC 15F47216
Copy CRC 15F47216
Copy OK

No errors occured


End of status report

EAC extraction logfile from 26. February 2011, 22:03 for CD
Stan Getz / East Of The Sun - The West Coast Sessions [disc 3]

Used drive : HP DVD Writer 1170d Adapter: 1 ID: 1
Read mode : Secure with NO C2, accurate stream, disable cache
Read offset correction : 6
Overread into Lead-In and Lead-Out : No

Used output format : C:\Program Files\FLAC\flac.exe (User Defined Encoder)
128 kBit/s
Additional command line options : -8 -V -T "ARTIST=%a" -T "TITLE=%t" -T "ALBUM=%g" -T "DATE=%y" -T "TRACKNUMBER=%n" -T "TOTALTRACKS=%x" -T "GENRE=%m" -T "ALBUM ARTIST=%v" -T "ALBUMARTIST=%v" -T "COMMENT=EAC V0.99 prebeta 4, Secure Mode,

Other options :
Fill up missing offset samples with silence : Yes
Delete leading and trailing silent blocks : No
Installed external ASPI interface


Track 1
Filename C:\Documents and Settings\getz\CD 3\01 - Where Or When.wav

Pre-gap length 0:00:02.42

Peak level 86.7 %
Track quality 100.0 %
Test CRC 6979D74B
Copy CRC 6979D74B
Copy OK

Track 2
Filename C:\Documents and Settings\getz\CD 3\02 - Woody'n You [take 1].wav

Pre-gap length 0:00:33.29

Peak level 99.9 %
Track quality 100.0 %
Test CRC BF687DC2
Copy CRC BF687DC2
Copy OK

Track 3
Filename C:\Documents and Settings\getz\CD 3\03 - Woody'n You [take 2 master].wav

Pre-gap length 0:00:07.33

Peak level 98.2 %
Track quality 100.0 %
Test CRC 9C8B9015
Copy CRC 9C8B9015
Copy OK

Track 4
Filename C:\Documents and Settings\getz\CD 3\04 - Woody'n You [take 3 partial].wav

Peak level 90.9 %
Track quality 100.0 %
Test CRC A823C5CE
Copy CRC A823C5CE
Copy OK

Track 5
Filename C:\Documents and Settings\getz\CD 3\05 - Smiles.wav

Pre-gap length 0:00:24.02

Peak level 86.2 %
Track quality 100.0 %
Test CRC 4B764BFD
Copy CRC 4B764BFD
Copy OK

Track 6
Filename C:\Documents and Settings\getz\CD 3\06 - Three Little Words.wav

Pre-gap length 0:00:14.22

Peak level 90.6 %
Track quality 100.0 %
Test CRC 11BA8E01
Copy CRC 11BA8E01
Copy OK

Track 7
Filename C:\Documents and Settings\getz\CD 3\07 - But Beautiful.wav

Pre-gap length 0:00:55.06

Peak level 57.5 %
Track quality 99.9 %
Test CRC 0F024B30
Copy CRC 0F024B30
Copy OK

Track 8
Filename C:\Documents and Settings\getz\CD 3\08 - All God's Chillun Got Rhythm [take 1 master].wav

Pre-gap length 0:00:37.69

Peak level 100.0 %
Track quality 100.0 %
Test CRC CC6751A4
Copy CRC CC6751A4
Copy OK

Track 9
Filename C:\Documents and Settings\getz\CD 3\09 - All God's Chillun Got Rhythm [take 2].wav

Pre-gap length 0:00:14.33

Peak level 98.7 %
Track quality 100.0 %
Test CRC A88D9F3F
Copy CRC A88D9F3F
Copy OK

Track 10
Filename C:\Documents and Settings\getz\CD 3\10 - Time After Time [take 1].wav

Pre-gap length 0:00:18.46

Peak level 99.9 %
Track quality 100.0 %
Test CRC C31BFD56
Copy CRC C31BFD56
Copy OK

Track 11
Filename C:\Documents and Settings\getz\CD 3\11 - Time After Time [take 2 master].wav

Pre-gap length 0:00:24.40

Peak level 99.9 %
Track quality 100.0 %
Test CRC EA966B31
Copy CRC EA966B31
Copy OK

Track 12
Filename C:\Documents and Settings\getz\CD 3\12 - This Can't Be Love.wav

Pre-gap length 0:00:01.70

Peak level 99.4 %
Track quality 100.0 %
Test CRC 6269EC8C
Copy CRC 6269EC8C
Copy OK

No errors occured


End of status report


Stan Getz - East Of The Sun: The West Coast Sessions (1955-57) [3CD] {1996 Verve Remaster} [repost]

Stan Getz - East Of The Sun: The West Coast Sessions (1955-57) [3CD] {1996 Verve Remaster} [repost]


All thanks goes to the original releaser!