Subcategories

Stan Getz - The Lyrical Stan Getz

Posted By: intothe
Stan Getz - The Lyrical Stan Getz

Stan Getz - The Lyrical Stan Getz
Jazz | EAC rip (FLAC+CUE+LOG) | 228 MB | full scans
Verve (1988) | 45:05 | RAR with 5% recovery


EAC extraction logfile from 2. May 2009, 11:02

Stan Getz / The Lyrical Stan Getz

Used drive : _NEC DVD_RW ND-3500AG Adapter: 0 ID: 0

Read mode : Secure
Utilize accurate stream : Yes
Defeat audio cache : Yes
Make use of C2 pointers : No

Read offset correction : 48
Overread into Lead-In and Lead-Out : No
Fill up missing offset samples with silence : Yes
Delete leading and trailing silent blocks : No
Null samples used in CRC calculations : Yes
Used interface : Native Win32 interface for Win NT & 2000

Used output format : User Defined Encoder
Selected bitrate : 768 kBit/s
Quality : High
Add ID3 tag : No
Command line compressor : C:\Program Files\Exact Audio Copy\FLAC\FLAC.EXE
Additional command line options : -6 -V -T "ARTIST=%a" -T "TITLE=%t" -T "ALBUM=%g" -T "DATE=%y" -T "TRACKNUMBER=%n" -T "GENRE=%m" -T "COMMENT=%e" %s -o %d


TOC of the extracted CD

Track | Start | Length | Start sector | End sector
––––––––––––––––––––––––––––-
1 | 0:00.00 | 11:22.00 | 0 | 51149
2 | 11:22.00 | 8:24.22 | 51150 | 88971
3 | 19:46.22 | 5:08.55 | 88972 | 112126
4 | 24:55.02 | 5:22.43 | 112127 | 136319
5 | 30:17.45 | 5:26.37 | 136320 | 160806
6 | 35:44.07 | 9:21.18 | 160807 | 202899


Range status and errors

Selected range

Filename J:\eMusic\Rip\Stan Getz - The Lyrical Stan Getz.wav

Peak level 100.0 %
Range quality 99.9 %
Copy CRC 9410943D
Copy OK

No errors occurred


AccurateRip summary

Track 1 accurately ripped (confidence 6) [E85C3FE3]
Track 2 accurately ripped (confidence 6) [1CEC40DB]
Track 3 accurately ripped (confidence 6) [7D51F218]
Track 4 accurately ripped (confidence 6) [1CB2A21D]
Track 5 accurately ripped (confidence 6) [EE8FF2DB]
Track 6 accurately ripped (confidence 6) [C33D32D0]

All tracks accurately ripped

End of status report


I believe this album is one of Stan's most profound projects. Discontinued by the production company, this album still influences my playing to this day! For instance, the one thing that drew me to this song was how he opened Willow Weep For Me as he "weeps" for attention in an introducing cadenza. - by Jeffrey C. Sandberg, Amazon.com

This is a compilation. Tracks recorded in 1964 (5.), 1972 (2-3.), 1975 (4,6.) and 1977 (1.)

Tracks:
1. Willow Weep for Me (Ann Ronnell) 11:22
2. La Fiesta (Chick Corea) 8:24
3. Captain Marvel (Chick Corea) 5:08
4. Ligia (Antonio Carlos Jobim) 5:22
5. Misty (Erroll Garner) 5:26
6. Lover Man (Oh Where Can You Be) (Jimmy Davis/Roger "Ram" Ramirez/Jimmy Sherman) 9:20

Personnel:
Stan Getz (Tenor Saxophone)
Chick Corea (Piano) - 2,3
Billy Hart (Drums) - 1,6
Stanley Clarke (Bass Guitar) - 2,3
Tony Williams (Drums) - 2,3
Albert Dailey (Piano) - 4,6
Airto Moreira (Percussion) - 4,6
Joao Gilberto (Vocals and Guitar) - 4,6
Andy Laverne (Piano) - 1
Mike Richmond (Double Bass) - 1
Efrain Toro (Percussion) - 1
Steve Swallow (Bass) - 4
Grady Tate (Drums) - 4
Bob Brookmeyer (Trombone) - 5
Herbie Hancock (Piano) - 5
Gary Burton (Vibraphone) - 5
Ron Carter (Double Bass) - 5
Elvin Jones (Drums) - 5
Clint Houston (Double Bass) - 6

Dlink