Subcategories

Status Quo - Collected (2017)

Posted By: delpotro
Status Quo - Collected (2017)

Status Quo - Collected (2017)
EAC Rip | FLAC (tracks+log+.cue) - 1,5 Gb | MP3 CBR 320 kbps - 532 Mb | Scans - 15 Mb | 03:53:20
Classic Rock, Hard Rock, Pychedelic Rock | Label: Universal Music

Amazing 60-track anthology spanning 1966 to 2013! Includes band, solo and offshoot material, including 3 songs by previous outfits The Spectres and Traffic Jam as well as The Party Boys' "He's Gonna Step On You Again".

South London members Alan Lancaster (bass) and Francis Rossi (guitar) were the original members and founders of Status Quo. Formerly known as The Spectres and later renamed to Traffic or Traffic Jam they settled for Status Quo as their band name in 1967. The following years they were joined by John Coghlan (drums), Roy Lynes (keyboard) and Rick Parfitt (guitar †2016), and after several band members changes are still performing today in a revamped line-up.

In 1968 their first hit record "Pictures of Matchstick Men" was released and the debut album soon followed. The subsequent years Status Quo, or simply Quo, enjoyed a multitude of hits; "Mean Girl", "Down Down", "Rockin' All Over The World", "The Wanderer", "In The Army Now", "Roll Over Lay Down (Live)", all climbed the charts in different countries.

During the years Status Quo developed their own signature style of heavy rhythms, a few guitar chords, straightforward, accessible lyrics and collected a huge and loyal fan base. In 2006 NME magazine named Status Quo "The Most Successful UK band" as they achieved more chart hits than any other British band.
Tracklist:
CD1
01 Pictures Of Matchstick Men
02 Black Veils Of Melancholy
03 Ice In The Sun
04 Make Me Stay A Little Bit Longer
05 Are You Growing Tired Of My Love
06 Down The Dustpipe
07 Tune To The Music
08 Mean Girl
09 Paper Plane
10 Caroline
11 Roll Over Lay Down (Live)
12 Break The Rules
13 Down Down
14 Rain
15 Wild Side Of Life
16 Rockin' All Over The World
17 Hold You Back
18 Again And Again
19 Accident Prone
20 Whatever You Want
21 Living On An Island

CD2
01 What You're Proposing
02 Lies
03 Rock 'n' Roll
04 Something ' Bout You Baby I Like
05 Dear John
06 Ol' Rag Blues
07 Marguerita Time
08 The Wanderer
09 Rollin' Home
10 In The Army Now
11 Dreamin'
12 Ain't Complaining
13 Not At All
14 Can't Give You More
15 I Didn't Mean It
16 The Way It Goes
17 The Oriental
18 The Party Ain't Over Yet
19 Beginning Of The End
20 Looking Out For Caroline

CD3
01 I (Who Have Nothing)
02 Hurdy Gurdy Man
03 Almost But Not Quite There
04 The Anniversary Waltz (Part1)
05 Roadhouse Medley
06 In The Army Now
07 Running All Over The World
08 It's Christmas Time
09 Blue-Eyed Lady (The Frantic Four Live)
10 Caroline (Aquostic Version)
11 Hold You Back (Aquostic Version)
12 Another Shipwreck
13 Ships In The Night
14 He's Gonna Step On You Again
15 Mine All Mine
16 One Step At A Time
17 Faded Memory
18 Rubber Gloves
19 Jump That Rock (Whatever You Want)

Exact Audio Copy V1.3 from 2. September 2016

EAC extraction logfile from 29. April 2018, 17:23

Status Quo / Collected (Disc 1)

Used drive : HL-DT-STDVDRAM GH24NSC0 Adapter: 1 ID: 0

Read mode : Secure
Utilize accurate stream : Yes
Defeat audio cache : Yes
Make use of C2 pointers : No

Read offset correction : 6
Overread into Lead-In and Lead-Out : No
Fill up missing offset samples with silence : Yes
Delete leading and trailing silent blocks : No
Null samples used in CRC calculations : Yes
Used interface : Native Win32 interface for Win NT & 2000
Gap handling : Appended to previous track

Used output format : User Defined Encoder
Selected bitrate : 1024 kBit/s
Quality : High
Add ID3 tag : No
Command line compressor : C:\Program Files (x86)\Exact Audio Copy\Flac\flac.exe
Additional command line options : -8 -V -T "ARTIST=%artist%" -T "TITLE=%title%" -T "ALBUM=%albumtitle%" -T "DATE=%year%" -T "TRACKNUMBER=%tracknr%" -T "GENRE=%genre%" -T "PERFORMER=%albuminterpret%" -T "COMPOSER=%composer%" %haslyrics%–tag-from-file=LYRICS="%lyricsfile%"%haslyrics% -T "ALBUMARTIST=%albumartist%" -T "DISCNUMBER=%cdnumber%" -T "TOTALDISCS=%totalcds%" -T "TOTALTRACKS=%numtracks%" -T "COMMENT=%comment%" %source% -o %dest%


TOC of the extracted CD

Track | Start | Length | Start sector | End sector
––––––––––––––––––––––––––––-
1 | 0:00.00 | 3:10.48 | 0 | 14297
2 | 3:10.48 | 3:09.56 | 14298 | 28528
3 | 6:20.29 | 2:12.42 | 28529 | 38470
4 | 8:32.71 | 2:54.57 | 38471 | 51577
5 | 11:27.53 | 3:35.53 | 51578 | 67755
6 | 15:03.31 | 2:04.38 | 67756 | 77093
7 | 17:07.69 | 3:08.30 | 77094 | 91223
8 | 20:16.24 | 3:54.32 | 91224 | 108805
9 | 24:10.56 | 2:58.38 | 108806 | 122193
10 | 27:09.19 | 4:18.60 | 122194 | 141603
11 | 31:28.04 | 5:40.40 | 141604 | 167143
12 | 37:08.44 | 3:40.22 | 167144 | 183665
13 | 40:48.66 | 5:23.58 | 183666 | 207948
14 | 46:12.49 | 4:34.25 | 207949 | 228523
15 | 50:46.74 | 3:16.49 | 228524 | 243272
16 | 54:03.48 | 3:36.28 | 243273 | 259500
17 | 57:40.01 | 4:31.60 | 259501 | 279885
18 | 62:11.61 | 3:41.15 | 279886 | 296475
19 | 65:53.01 | 5:06.34 | 296476 | 319459
20 | 70:59.35 | 4:03.46 | 319460 | 337730
21 | 75:03.06 | 4:46.14 | 337731 | 359194


Track 1

Filename H:\#NEW RIPS II\Status Quo - Collected\cd 1\01. Status Quo - Pictures of Matchstick Men.wav

Pre-gap length 0:00:02.00

Peak level 100.0 %
Extraction speed 1.9 X
Track quality 100.0 %
Test CRC 0FE34190
Copy CRC 0FE34190
Track not present in AccurateRip database
Copy OK

Track 2

Filename H:\#NEW RIPS II\Status Quo - Collected\cd 1\02. Status Quo - Black Veils of Melancholy.wav

Pre-gap length 0:00:02.00

Peak level 100.0 %
Extraction speed 2.0 X
Track quality 100.0 %
Test CRC 802AC45E
Copy CRC 802AC45E
Track not present in AccurateRip database
Copy OK

Track 3

Filename H:\#NEW RIPS II\Status Quo - Collected\cd 1\03. Status Quo - Ice In the Sun.wav

Pre-gap length 0:00:02.00

Peak level 100.0 %
Extraction speed 2.0 X
Track quality 100.0 %
Test CRC F89620BE
Copy CRC F89620BE
Track not present in AccurateRip database
Copy OK

Track 4

Filename H:\#NEW RIPS II\Status Quo - Collected\cd 1\04. Status Quo - Make Me Stay a Little Bit Longer.wav

Pre-gap length 0:00:02.00

Peak level 100.0 %
Extraction speed 2.2 X
Track quality 100.0 %
Test CRC 8E952554
Copy CRC 8E952554
Track not present in AccurateRip database
Copy OK

Track 5

Filename H:\#NEW RIPS II\Status Quo - Collected\cd 1\05. Status Quo - Are You Growing Tired of My Love.wav

Pre-gap length 0:00:02.00

Peak level 100.0 %
Extraction speed 2.4 X
Track quality 100.0 %
Test CRC A7D8988D
Copy CRC A7D8988D
Track not present in AccurateRip database
Copy OK

Track 6

Filename H:\#NEW RIPS II\Status Quo - Collected\cd 1\06. Status Quo - Down the Dustpipe.wav

Pre-gap length 0:00:02.00

Peak level 100.0 %
Extraction speed 1.5 X
Track quality 99.9 %
Test CRC CCB048D0
Copy CRC CCB048D0
Track not present in AccurateRip database
Copy OK

Track 7

Filename H:\#NEW RIPS II\Status Quo - Collected\cd 1\07. Status Quo - Tune to the Music.wav

Pre-gap length 0:00:02.00

Peak level 73.4 %
Extraction speed 2.5 X
Track quality 100.0 %
Test CRC 45933CA3
Copy CRC 45933CA3
Track not present in AccurateRip database
Copy OK

Track 8

Filename H:\#NEW RIPS II\Status Quo - Collected\cd 1\08. Status Quo - Mean Girl.wav

Pre-gap length 0:00:02.00

Peak level 100.0 %
Extraction speed 2.7 X
Track quality 100.0 %
Test CRC 86FE0744
Copy CRC 86FE0744
Track not present in AccurateRip database
Copy OK

Track 9

Filename H:\#NEW RIPS II\Status Quo - Collected\cd 1\09. Status Quo - Paper Plane.wav

Pre-gap length 0:00:02.00

Peak level 100.0 %
Extraction speed 2.7 X
Track quality 100.0 %
Test CRC BB77816A
Copy CRC BB77816A
Track not present in AccurateRip database
Copy OK

Track 10

Filename H:\#NEW RIPS II\Status Quo - Collected\cd 1\10. Status Quo - Caroline.wav

Pre-gap length 0:00:02.00

Peak level 100.0 %
Extraction speed 3.0 X
Track quality 100.0 %
Test CRC 78314DA9
Copy CRC 78314DA9
Track not present in AccurateRip database
Copy OK

Track 11

Filename H:\#NEW RIPS II\Status Quo - Collected\cd 1\11. Status Quo - Roll Over Lay Down.wav

Pre-gap length 0:00:02.00

Peak level 100.0 %
Extraction speed 3.2 X
Track quality 100.0 %
Test CRC 441A8ED8
Copy CRC 441A8ED8
Track not present in AccurateRip database
Copy OK

Track 12

Filename H:\#NEW RIPS II\Status Quo - Collected\cd 1\12. Status Quo - Break the Rules.wav

Pre-gap length 0:00:02.00

Peak level 100.0 %
Extraction speed 3.2 X
Track quality 100.0 %
Test CRC 68C4AE74
Copy CRC 68C4AE74
Track not present in AccurateRip database
Copy OK

Track 13

Filename H:\#NEW RIPS II\Status Quo - Collected\cd 1\13. Status Quo - Down Down.wav

Pre-gap length 0:00:02.00

Peak level 99.9 %
Extraction speed 3.5 X
Track quality 100.0 %
Test CRC B265A997
Copy CRC B265A997
Track not present in AccurateRip database
Copy OK

Track 14

Filename H:\#NEW RIPS II\Status Quo - Collected\cd 1\14. Status Quo - Rain.wav

Pre-gap length 0:00:02.00

Peak level 100.0 %
Extraction speed 3.5 X
Track quality 100.0 %
Test CRC 720AFF24
Copy CRC 720AFF24
Track not present in AccurateRip database
Copy OK

Track 15

Filename H:\#NEW RIPS II\Status Quo - Collected\cd 1\15. Status Quo - Wild Side of Life.wav

Pre-gap length 0:00:02.00

Peak level 100.0 %
Extraction speed 3.5 X
Track quality 100.0 %
Test CRC 84657584
Copy CRC 84657584
Track not present in AccurateRip database
Copy OK

Track 16

Filename H:\#NEW RIPS II\Status Quo - Collected\cd 1\16. Status Quo - Rockin' All Over the World.wav

Pre-gap length 0:00:02.00

Peak level 100.0 %
Extraction speed 3.6 X
Track quality 100.0 %
Test CRC 0B134EDB
Copy CRC 0B134EDB
Track not present in AccurateRip database
Copy OK

Track 17

Filename H:\#NEW RIPS II\Status Quo - Collected\cd 1\17. Status Quo - Hold You Back.wav

Pre-gap length 0:00:02.00

Peak level 100.0 %
Extraction speed 3.8 X
Track quality 100.0 %
Test CRC 9B093493
Copy CRC 9B093493
Track not present in AccurateRip database
Copy OK

Track 18

Filename H:\#NEW RIPS II\Status Quo - Collected\cd 1\18. Status Quo - Again and Again.wav

Pre-gap length 0:00:02.00

Peak level 100.0 %
Extraction speed 3.8 X
Track quality 100.0 %
Test CRC 05CBEFC2
Copy CRC 05CBEFC2
Track not present in AccurateRip database
Copy OK

Track 19

Filename H:\#NEW RIPS II\Status Quo - Collected\cd 1\19. Status Quo - Accident Prone.wav

Pre-gap length 0:00:02.00

Peak level 98.7 %
Extraction speed 4.0 X
Track quality 100.0 %
Test CRC BF45B572
Copy CRC BF45B572
Track not present in AccurateRip database
Copy OK

Track 20

Filename H:\#NEW RIPS II\Status Quo - Collected\cd 1\20. Status Quo - Whatever You Want.wav

Pre-gap length 0:00:02.00

Peak level 100.0 %
Extraction speed 4.0 X
Track quality 100.0 %
Test CRC 66560E44
Copy CRC 66560E44
Track not present in AccurateRip database
Copy OK

Track 21

Filename H:\#NEW RIPS II\Status Quo - Collected\cd 1\21. Status Quo - Living on an Island.wav

Pre-gap length 0:00:02.00

Peak level 100.0 %
Extraction speed 3.3 X
Track quality 99.9 %
Test CRC FD081ACB
Copy CRC FD081ACB
Track not present in AccurateRip database
Copy OK


None of the tracks are present in the AccurateRip database

No errors occurred

End of status report

–– CUETools DB Plugin V2.1.6

[CTDB TOCID: 0tGMLPnDh.7XI2xYU2QaTM5aXQo-] found
Submit result: 0tGMLPnDh.7XI2xYU2QaTM5aXQo- has been confirmed
Track | CTDB Status
1 | (2/2) Accurately ripped
2 | (2/2) Accurately ripped
3 | (2/2) Accurately ripped
4 | (2/2) Accurately ripped
5 | (2/2) Accurately ripped
6 | (2/2) Accurately ripped
7 | (2/2) Accurately ripped
8 | (2/2) Accurately ripped
9 | (2/2) Accurately ripped
10 | (2/2) Accurately ripped
11 | (2/2) Accurately ripped
12 | (2/2) Accurately ripped
13 | (2/2) Accurately ripped
14 | (2/2) Accurately ripped
15 | (2/2) Accurately ripped
16 | (2/2) Accurately ripped
17 | (2/2) Accurately ripped
18 | (2/2) Accurately ripped
19 | (2/2) Accurately ripped
20 | (2/2) Accurately ripped
21 | (2/2) Accurately ripped


==== Log checksum 7FDBF25972A5F3EB47E83B73C88C4FFAD9F0A2B5326C409B7E110701FC8DDC12 ====

––––––––––––––––––––––––––––––

Exact Audio Copy V1.3 from 2. September 2016

EAC extraction logfile from 29. April 2018, 17:23

Status Quo / Collected (Disc 1)

Used drive : HL-DT-STDVDRAM GH24NSC0 Adapter: 1 ID: 0

Read mode : Secure
Utilize accurate stream : Yes
Defeat audio cache : Yes
Make use of C2 pointers : No

Read offset correction : 6
Overread into Lead-In and Lead-Out : No
Fill up missing offset samples with silence : Yes
Delete leading and trailing silent blocks : No
Null samples used in CRC calculations : Yes
Used interface : Native Win32 interface for Win NT & 2000
Gap handling : Appended to previous track

Used output format : User Defined Encoder
Selected bitrate : 1024 kBit/s
Quality : High
Add ID3 tag : No
Command line compressor : C:\Program Files (x86)\Exact Audio Copy\Flac\flac.exe
Additional command line options : -8 -V -T "ARTIST=%artist%" -T "TITLE=%title%" -T "ALBUM=%albumtitle%" -T "DATE=%year%" -T "TRACKNUMBER=%tracknr%" -T "GENRE=%genre%" -T "PERFORMER=%albuminterpret%" -T "COMPOSER=%composer%" %haslyrics%–tag-from-file=LYRICS="%lyricsfile%"%haslyrics% -T "ALBUMARTIST=%albumartist%" -T "DISCNUMBER=%cdnumber%" -T "TOTALDISCS=%totalcds%" -T "TOTALTRACKS=%numtracks%" -T "COMMENT=%comment%" %source% -o %dest%


TOC of the extracted CD

Track | Start | Length | Start sector | End sector
––––––––––––––––––––––––––––-
1 | 0:00.00 | 3:10.48 | 0 | 14297
2 | 3:10.48 | 3:09.56 | 14298 | 28528
3 | 6:20.29 | 2:12.42 | 28529 | 38470
4 | 8:32.71 | 2:54.57 | 38471 | 51577
5 | 11:27.53 | 3:35.53 | 51578 | 67755
6 | 15:03.31 | 2:04.38 | 67756 | 77093
7 | 17:07.69 | 3:08.30 | 77094 | 91223
8 | 20:16.24 | 3:54.32 | 91224 | 108805
9 | 24:10.56 | 2:58.38 | 108806 | 122193
10 | 27:09.19 | 4:18.60 | 122194 | 141603
11 | 31:28.04 | 5:40.40 | 141604 | 167143
12 | 37:08.44 | 3:40.22 | 167144 | 183665
13 | 40:48.66 | 5:23.58 | 183666 | 207948
14 | 46:12.49 | 4:34.25 | 207949 | 228523
15 | 50:46.74 | 3:16.49 | 228524 | 243272
16 | 54:03.48 | 3:36.28 | 243273 | 259500
17 | 57:40.01 | 4:31.60 | 259501 | 279885
18 | 62:11.61 | 3:41.15 | 279886 | 296475
19 | 65:53.01 | 5:06.34 | 296476 | 319459
20 | 70:59.35 | 4:03.46 | 319460 | 337730
21 | 75:03.06 | 4:46.14 | 337731 | 359194


Track 1

Filename H:\#NEW RIPS II\Status Quo - Collected\cd 1\01. Status Quo - Pictures of Matchstick Men.wav

Pre-gap length 0:00:02.00

Peak level 100.0 %
Extraction speed 1.9 X
Track quality 100.0 %
Test CRC 0FE34190
Copy CRC 0FE34190
Track not present in AccurateRip database
Copy OK

Track 2

Filename H:\#NEW RIPS II\Status Quo - Collected\cd 1\02. Status Quo - Black Veils of Melancholy.wav

Pre-gap length 0:00:02.00

Peak level 100.0 %
Extraction speed 2.0 X
Track quality 100.0 %
Test CRC 802AC45E
Copy CRC 802AC45E
Track not present in AccurateRip database
Copy OK

Track 3

Filename H:\#NEW RIPS II\Status Quo - Collected\cd 1\03. Status Quo - Ice In the Sun.wav

Pre-gap length 0:00:02.00

Peak level 100.0 %
Extraction speed 2.0 X
Track quality 100.0 %
Test CRC F89620BE
Copy CRC F89620BE
Track not present in AccurateRip database
Copy OK

Track 4

Filename H:\#NEW RIPS II\Status Quo - Collected\cd 1\04. Status Quo - Make Me Stay a Little Bit Longer.wav

Pre-gap length 0:00:02.00

Peak level 100.0 %
Extraction speed 2.2 X
Track quality 100.0 %
Test CRC 8E952554
Copy CRC 8E952554
Track not present in AccurateRip database
Copy OK

Track 5

Filename H:\#NEW RIPS II\Status Quo - Collected\cd 1\05. Status Quo - Are You Growing Tired of My Love.wav

Pre-gap length 0:00:02.00

Peak level 100.0 %
Extraction speed 2.4 X
Track quality 100.0 %
Test CRC A7D8988D
Copy CRC A7D8988D
Track not present in AccurateRip database
Copy OK

Track 6

Filename H:\#NEW RIPS II\Status Quo - Collected\cd 1\06. Status Quo - Down the Dustpipe.wav

Pre-gap length 0:00:02.00

Peak level 100.0 %
Extraction speed 1.5 X
Track quality 99.9 %
Test CRC CCB048D0
Copy CRC CCB048D0
Track not present in AccurateRip database
Copy OK

Track 7

Filename H:\#NEW RIPS II\Status Quo - Collected\cd 1\07. Status Quo - Tune to the Music.wav

Pre-gap length 0:00:02.00

Peak level 73.4 %
Extraction speed 2.5 X
Track quality 100.0 %
Test CRC 45933CA3
Copy CRC 45933CA3
Track not present in AccurateRip database
Copy OK

Track 8

Filename H:\#NEW RIPS II\Status Quo - Collected\cd 1\08. Status Quo - Mean Girl.wav

Pre-gap length 0:00:02.00

Peak level 100.0 %
Extraction speed 2.7 X
Track quality 100.0 %
Test CRC 86FE0744
Copy CRC 86FE0744
Track not present in AccurateRip database
Copy OK

Track 9

Filename H:\#NEW RIPS II\Status Quo - Collected\cd 1\09. Status Quo - Paper Plane.wav

Pre-gap length 0:00:02.00

Peak level 100.0 %
Extraction speed 2.7 X
Track quality 100.0 %
Test CRC BB77816A
Copy CRC BB77816A
Track not present in AccurateRip database
Copy OK

Track 10

Filename H:\#NEW RIPS II\Status Quo - Collected\cd 1\10. Status Quo - Caroline.wav

Pre-gap length 0:00:02.00

Peak level 100.0 %
Extraction speed 3.0 X
Track quality 100.0 %
Test CRC 78314DA9
Copy CRC 78314DA9
Track not present in AccurateRip database
Copy OK

Track 11

Filename H:\#NEW RIPS II\Status Quo - Collected\cd 1\11. Status Quo - Roll Over Lay Down.wav

Pre-gap length 0:00:02.00

Peak level 100.0 %
Extraction speed 3.2 X
Track quality 100.0 %
Test CRC 441A8ED8
Copy CRC 441A8ED8
Track not present in AccurateRip database
Copy OK

Track 12

Filename H:\#NEW RIPS II\Status Quo - Collected\cd 1\12. Status Quo - Break the Rules.wav

Pre-gap length 0:00:02.00

Peak level 100.0 %
Extraction speed 3.2 X
Track quality 100.0 %
Test CRC 68C4AE74
Copy CRC 68C4AE74
Track not present in AccurateRip database
Copy OK

Track 13

Filename H:\#NEW RIPS II\Status Quo - Collected\cd 1\13. Status Quo - Down Down.wav

Pre-gap length 0:00:02.00

Peak level 99.9 %
Extraction speed 3.5 X
Track quality 100.0 %
Test CRC B265A997
Copy CRC B265A997
Track not present in AccurateRip database
Copy OK

Track 14

Filename H:\#NEW RIPS II\Status Quo - Collected\cd 1\14. Status Quo - Rain.wav

Pre-gap length 0:00:02.00

Peak level 100.0 %
Extraction speed 3.5 X
Track quality 100.0 %
Test CRC 720AFF24
Copy CRC 720AFF24
Track not present in AccurateRip database
Copy OK

Track 15

Filename H:\#NEW RIPS II\Status Quo - Collected\cd 1\15. Status Quo - Wild Side of Life.wav

Pre-gap length 0:00:02.00

Peak level 100.0 %
Extraction speed 3.5 X
Track quality 100.0 %
Test CRC 84657584
Copy CRC 84657584
Track not present in AccurateRip database
Copy OK

Track 16

Filename H:\#NEW RIPS II\Status Quo - Collected\cd 1\16. Status Quo - Rockin' All Over the World.wav

Pre-gap length 0:00:02.00

Peak level 100.0 %
Extraction speed 3.6 X
Track quality 100.0 %
Test CRC 0B134EDB
Copy CRC 0B134EDB
Track not present in AccurateRip database
Copy OK

Track 17

Filename H:\#NEW RIPS II\Status Quo - Collected\cd 1\17. Status Quo - Hold You Back.wav

Pre-gap length 0:00:02.00

Peak level 100.0 %
Extraction speed 3.8 X
Track quality 100.0 %
Test CRC 9B093493
Copy CRC 9B093493
Track not present in AccurateRip database
Copy OK

Track 18

Filename H:\#NEW RIPS II\Status Quo - Collected\cd 1\18. Status Quo - Again and Again.wav

Pre-gap length 0:00:02.00

Peak level 100.0 %
Extraction speed 3.8 X
Track quality 100.0 %
Test CRC 05CBEFC2
Copy CRC 05CBEFC2
Track not present in AccurateRip database
Copy OK

Track 19

Filename H:\#NEW RIPS II\Status Quo - Collected\cd 1\19. Status Quo - Accident Prone.wav

Pre-gap length 0:00:02.00

Peak level 98.7 %
Extraction speed 4.0 X
Track quality 100.0 %
Test CRC BF45B572
Copy CRC BF45B572
Track not present in AccurateRip database
Copy OK

Track 20

Filename H:\#NEW RIPS II\Status Quo - Collected\cd 1\20. Status Quo - Whatever You Want.wav

Pre-gap length 0:00:02.00

Peak level 100.0 %
Extraction speed 4.0 X
Track quality 100.0 %
Test CRC 66560E44
Copy CRC 66560E44
Track not present in AccurateRip database
Copy OK

Track 21

Filename H:\#NEW RIPS II\Status Quo - Collected\cd 1\21. Status Quo - Living on an Island.wav

Pre-gap length 0:00:02.00

Peak level 100.0 %
Extraction speed 3.3 X
Track quality 99.9 %
Test CRC FD081ACB
Copy CRC FD081ACB
Track not present in AccurateRip database
Copy OK


None of the tracks are present in the AccurateRip database

No errors occurred

End of status report

–– CUETools DB Plugin V2.1.6

[CTDB TOCID: 0tGMLPnDh.7XI2xYU2QaTM5aXQo-] found
Submit result: 0tGMLPnDh.7XI2xYU2QaTM5aXQo- has been confirmed
Track | CTDB Status
1 | (2/2) Accurately ripped
2 | (2/2) Accurately ripped
3 | (2/2) Accurately ripped
4 | (2/2) Accurately ripped
5 | (2/2) Accurately ripped
6 | (2/2) Accurately ripped
7 | (2/2) Accurately ripped
8 | (2/2) Accurately ripped
9 | (2/2) Accurately ripped
10 | (2/2) Accurately ripped
11 | (2/2) Accurately ripped
12 | (2/2) Accurately ripped
13 | (2/2) Accurately ripped
14 | (2/2) Accurately ripped
15 | (2/2) Accurately ripped
16 | (2/2) Accurately ripped
17 | (2/2) Accurately ripped
18 | (2/2) Accurately ripped
19 | (2/2) Accurately ripped
20 | (2/2) Accurately ripped
21 | (2/2) Accurately ripped


==== Log checksum 7FDBF25972A5F3EB47E83B73C88C4FFAD9F0A2B5326C409B7E110701FC8DDC12 ====

Exact Audio Copy V1.3 from 2. September 2016

EAC extraction logfile from 29. April 2018, 17:49

Status Quo / Collected (Disc 2)

Used drive : HL-DT-STDVDRAM GH24NSC0 Adapter: 1 ID: 0

Read mode : Secure
Utilize accurate stream : Yes
Defeat audio cache : Yes
Make use of C2 pointers : No

Read offset correction : 6
Overread into Lead-In and Lead-Out : No
Fill up missing offset samples with silence : Yes
Delete leading and trailing silent blocks : No
Null samples used in CRC calculations : Yes
Used interface : Native Win32 interface for Win NT & 2000
Gap handling : Appended to previous track

Used output format : User Defined Encoder
Selected bitrate : 1024 kBit/s
Quality : High
Add ID3 tag : No
Command line compressor : C:\Program Files (x86)\Exact Audio Copy\Flac\flac.exe
Additional command line options : -8 -V -T "ARTIST=%artist%" -T "TITLE=%title%" -T "ALBUM=%albumtitle%" -T "DATE=%year%" -T "TRACKNUMBER=%tracknr%" -T "GENRE=%genre%" -T "PERFORMER=%albuminterpret%" -T "COMPOSER=%composer%" %haslyrics%–tag-from-file=LYRICS="%lyricsfile%"%haslyrics% -T "ALBUMARTIST=%albumartist%" -T "DISCNUMBER=%cdnumber%" -T "TOTALDISCS=%totalcds%" -T "TOTALTRACKS=%numtracks%" -T "COMMENT=%comment%" %source% -o %dest%


TOC of the extracted CD

Track | Start | Length | Start sector | End sector
––––––––––––––––––––––––––––-
1 | 0:00.00 | 4:17.57 | 0 | 19331
2 | 4:17.57 | 3:58.24 | 19332 | 37205
3 | 8:16.06 | 5:25.55 | 37206 | 61635
4 | 13:41.61 | 2:57.57 | 61636 | 74967
5 | 16:39.43 | 3:13.00 | 74968 | 89442
6 | 19:52.43 | 2:53.38 | 89443 | 102455
7 | 22:46.06 | 3:28.52 | 102456 | 118107
8 | 26:14.58 | 3:31.00 | 118108 | 133932
9 | 29:45.58 | 4:26.61 | 133933 | 153943
10 | 34:12.44 | 4:43.16 | 153944 | 175184
11 | 38:55.60 | 2:57.03 | 175185 | 188462
12 | 41:52.63 | 4:40.38 | 188463 | 209500
13 | 46:33.26 | 2:56.13 | 209501 | 222713
14 | 49:29.39 | 4:27.19 | 222714 | 242757
15 | 53:56.58 | 3:23.37 | 242758 | 258019
16 | 57:20.20 | 3:59.45 | 258020 | 275989
17 | 61:19.65 | 4:30.51 | 275990 | 296290
18 | 65:50.41 | 3:52.19 | 296291 | 313709
19 | 69:42.60 | 3:17.10 | 313710 | 328494
20 | 72:59.70 | 3:58.56 | 328495 | 346400


Track 1

Filename H:\#NEW RIPS II\Status Quo - Collected\cd 2\01. Status Quo - What You're Proposing.wav

Pre-gap length 0:00:02.00

Peak level 100.0 %
Extraction speed 4.8 X
Track quality 100.0 %
Test CRC 4D6814F6
Copy CRC 4D6814F6
Track not present in AccurateRip database
Copy OK

Track 2

Filename H:\#NEW RIPS II\Status Quo - Collected\cd 2\02. Status Quo - Lies.wav

Pre-gap length 0:00:02.00

Peak level 99.9 %
Extraction speed 5.3 X
Track quality 100.0 %
Test CRC A8C54E39
Copy CRC A8C54E39
Track not present in AccurateRip database
Copy OK

Track 3

Filename H:\#NEW RIPS II\Status Quo - Collected\cd 2\03. Status Quo - Rock 'N' Roll.wav

Pre-gap length 0:00:02.00

Peak level 100.0 %
Extraction speed 5.8 X
Track quality 100.0 %
Test CRC 130DD926
Copy CRC 130DD926
Track not present in AccurateRip database
Copy OK

Track 4

Filename H:\#NEW RIPS II\Status Quo - Collected\cd 2\04. Status Quo - Something 'Bout You Baby I Like.wav

Pre-gap length 0:00:02.00

Peak level 100.0 %
Extraction speed 5.7 X
Track quality 100.0 %
Test CRC 06CDD51A
Copy CRC 06CDD51A
Track not present in AccurateRip database
Copy OK

Track 5

Filename H:\#NEW RIPS II\Status Quo - Collected\cd 2\05. Status Quo - Dear John.wav

Pre-gap length 0:00:02.00

Peak level 99.9 %
Extraction speed 6.0 X
Track quality 100.0 %
Test CRC C2671A1E
Copy CRC C2671A1E
Track not present in AccurateRip database
Copy OK

Track 6

Filename H:\#NEW RIPS II\Status Quo - Collected\cd 2\06. Status Quo - Ol' Rag Blues.wav

Pre-gap length 0:00:02.00

Peak level 100.0 %
Extraction speed 6.1 X
Track quality 100.0 %
Test CRC 3CD0B958
Copy CRC 3CD0B958
Track not present in AccurateRip database
Copy OK

Track 7

Filename H:\#NEW RIPS II\Status Quo - Collected\cd 2\07. Status Quo - Marguerita Time.wav

Pre-gap length 0:00:02.00

Peak level 100.0 %
Extraction speed 6.5 X
Track quality 100.0 %
Test CRC 50BD0C71
Copy CRC 50BD0C71
Track not present in AccurateRip database
Copy OK

Track 8

Filename H:\#NEW RIPS II\Status Quo - Collected\cd 2\08. Status Quo - The Wanderer.wav

Pre-gap length 0:00:02.00

Peak level 100.0 %
Extraction speed 6.8 X
Track quality 100.0 %
Test CRC AE6F0F9F
Copy CRC AE6F0F9F
Track not present in AccurateRip database
Copy OK

Track 9

Filename H:\#NEW RIPS II\Status Quo - Collected\cd 2\09. Status Quo - Rollin' Home.wav

Pre-gap length 0:00:02.00

Peak level 100.0 %
Extraction speed 7.3 X
Track quality 100.0 %
Test CRC 76B68DD2
Copy CRC 76B68DD2
Track not present in AccurateRip database
Copy OK

Track 10

Filename H:\#NEW RIPS II\Status Quo - Collected\cd 2\10. Status Quo - In the Army Now.wav

Pre-gap length 0:00:02.00

Peak level 100.0 %
Extraction speed 6.5 X
Track quality 99.9 %
Test CRC D5F80D21
Copy CRC D5F80D21
Track not present in AccurateRip database
Copy OK

Track 11

Filename H:\#NEW RIPS II\Status Quo - Collected\cd 2\11. Status Quo - Dreamin'.wav

Pre-gap length 0:00:02.00

Peak level 100.0 %
Extraction speed 7.4 X
Track quality 100.0 %
Test CRC 6836F07D
Copy CRC 6836F07D
Track not present in AccurateRip database
Copy OK

Track 12

Filename H:\#NEW RIPS II\Status Quo - Collected\cd 2\12. Status Quo - Ain't Complaining.wav

Pre-gap length 0:00:02.00

Peak level 100.0 %
Extraction speed 6.9 X
Track quality 99.9 %
Test CRC 746E9629
Copy CRC 746E9629
Track not present in AccurateRip database
Copy OK

Track 13

Filename H:\#NEW RIPS II\Status Quo - Collected\cd 2\13. Status Quo - Not at All.wav

Pre-gap length 0:00:01.98

Peak level 100.0 %
Extraction speed 7.8 X
Track quality 100.0 %
Test CRC 168C9457
Copy CRC 168C9457
Track not present in AccurateRip database
Copy OK

Track 14

Filename H:\#NEW RIPS II\Status Quo - Collected\cd 2\14. Status Quo - Can't Give You More.wav

Pre-gap length 0:00:02.00

Peak level 100.0 %
Extraction speed 7.2 X
Track quality 99.9 %
Test CRC 8324556D
Copy CRC 8324556D
Track not present in AccurateRip database
Copy OK

Track 15

Filename H:\#NEW RIPS II\Status Quo - Collected\cd 2\15. Status Quo - I Didn't Mean It.wav

Pre-gap length 0:00:02.00

Peak level 100.0 %
Extraction speed 7.0 X
Track quality 99.9 %
Test CRC 8DC4040B
Copy CRC 8DC4040B
Track not present in AccurateRip database
Copy OK

Track 16

Filename H:\#NEW RIPS II\Status Quo - Collected\cd 2\16. Status Quo - The Way It Goes.wav

Pre-gap length 0:00:02.00

Peak level 99.9 %
Extraction speed 8.8 X
Track quality 100.0 %
Test CRC FD4A74D6
Copy CRC FD4A74D6
Track not present in AccurateRip database
Copy OK

Track 17

Filename H:\#NEW RIPS II\Status Quo - Collected\cd 2\17. Status Quo - The Oriental.wav

Pre-gap length 0:00:02.00

Peak level 100.0 %
Extraction speed 9.1 X
Track quality 100.0 %
Test CRC 111689AB
Copy CRC 111689AB
Track not present in AccurateRip database
Copy OK

Track 18

Filename H:\#NEW RIPS II\Status Quo - Collected\cd 2\18. Status Quo - The Party Ain't Over Yet.wav

Pre-gap length 0:00:02.00

Peak level 99.9 %
Extraction speed 9.0 X
Track quality 100.0 %
Test CRC 558EFAFD
Copy CRC 558EFAFD
Track not present in AccurateRip database
Copy OK

Track 19

Filename H:\#NEW RIPS II\Status Quo - Collected\cd 2\19. Status Quo - Beginning of the End.wav

Pre-gap length 0:00:02.00

Peak level 96.9 %
Extraction speed 9.1 X
Track quality 100.0 %
Test CRC 6BC3F68B
Copy CRC 6BC3F68B
Track not present in AccurateRip database
Copy OK

Track 20

Filename H:\#NEW RIPS II\Status Quo - Collected\cd 2\20. Status Quo - Looking Out for Caroline.wav

Pre-gap length 0:00:02.00

Peak level 100.0 %
Extraction speed 7.7 X
Track quality 99.9 %
Test CRC 0FBE5DA0
Copy CRC 0FBE5DA0
Track not present in AccurateRip database
Copy OK


None of the tracks are present in the AccurateRip database

No errors occurred

End of status report

–– CUETools DB Plugin V2.1.6

[CTDB TOCID: 3oktWmU0aikQ6rimMkqbpgZPfJ0-] found
Submit result: 3oktWmU0aikQ6rimMkqbpgZPfJ0- has been confirmed
Track | CTDB Status
1 | (2/2) Accurately ripped
2 | (2/2) Accurately ripped
3 | (2/2) Accurately ripped
4 | (2/2) Accurately ripped
5 | (2/2) Accurately ripped
6 | (2/2) Accurately ripped
7 | (2/2) Accurately ripped
8 | (2/2) Accurately ripped
9 | (2/2) Accurately ripped
10 | (2/2) Accurately ripped
11 | (2/2) Accurately ripped
12 | (2/2) Accurately ripped
13 | (2/2) Accurately ripped
14 | (2/2) Accurately ripped
15 | (2/2) Accurately ripped
16 | (2/2) Accurately ripped
17 | (2/2) Accurately ripped
18 | (2/2) Accurately ripped
19 | (2/2) Accurately ripped
20 | (2/2) Accurately ripped


==== Log checksum 376819D979C2FC1121C754C9AD7ABAACE647124E71B5137C5514740A47439A01 ====

––––––––––––––––––––––––––––––

Exact Audio Copy V1.3 from 2. September 2016

EAC extraction logfile from 29. April 2018, 17:49

Status Quo / Collected (Disc 2)

Used drive : HL-DT-STDVDRAM GH24NSC0 Adapter: 1 ID: 0

Read mode : Secure
Utilize accurate stream : Yes
Defeat audio cache : Yes
Make use of C2 pointers : No

Read offset correction : 6
Overread into Lead-In and Lead-Out : No
Fill up missing offset samples with silence : Yes
Delete leading and trailing silent blocks : No
Null samples used in CRC calculations : Yes
Used interface : Native Win32 interface for Win NT & 2000
Gap handling : Appended to previous track

Used output format : User Defined Encoder
Selected bitrate : 1024 kBit/s
Quality : High
Add ID3 tag : No
Command line compressor : C:\Program Files (x86)\Exact Audio Copy\Flac\flac.exe
Additional command line options : -8 -V -T "ARTIST=%artist%" -T "TITLE=%title%" -T "ALBUM=%albumtitle%" -T "DATE=%year%" -T "TRACKNUMBER=%tracknr%" -T "GENRE=%genre%" -T "PERFORMER=%albuminterpret%" -T "COMPOSER=%composer%" %haslyrics%–tag-from-file=LYRICS="%lyricsfile%"%haslyrics% -T "ALBUMARTIST=%albumartist%" -T "DISCNUMBER=%cdnumber%" -T "TOTALDISCS=%totalcds%" -T "TOTALTRACKS=%numtracks%" -T "COMMENT=%comment%" %source% -o %dest%


TOC of the extracted CD

Track | Start | Length | Start sector | End sector
––––––––––––––––––––––––––––-
1 | 0:00.00 | 4:17.57 | 0 | 19331
2 | 4:17.57 | 3:58.24 | 19332 | 37205
3 | 8:16.06 | 5:25.55 | 37206 | 61635
4 | 13:41.61 | 2:57.57 | 61636 | 74967
5 | 16:39.43 | 3:13.00 | 74968 | 89442
6 | 19:52.43 | 2:53.38 | 89443 | 102455
7 | 22:46.06 | 3:28.52 | 102456 | 118107
8 | 26:14.58 | 3:31.00 | 118108 | 133932
9 | 29:45.58 | 4:26.61 | 133933 | 153943
10 | 34:12.44 | 4:43.16 | 153944 | 175184
11 | 38:55.60 | 2:57.03 | 175185 | 188462
12 | 41:52.63 | 4:40.38 | 188463 | 209500
13 | 46:33.26 | 2:56.13 | 209501 | 222713
14 | 49:29.39 | 4:27.19 | 222714 | 242757
15 | 53:56.58 | 3:23.37 | 242758 | 258019
16 | 57:20.20 | 3:59.45 | 258020 | 275989
17 | 61:19.65 | 4:30.51 | 275990 | 296290
18 | 65:50.41 | 3:52.19 | 296291 | 313709
19 | 69:42.60 | 3:17.10 | 313710 | 328494
20 | 72:59.70 | 3:58.56 | 328495 | 346400


Track 1

Filename H:\#NEW RIPS II\Status Quo - Collected\cd 2\01. Status Quo - What You're Proposing.wav

Pre-gap length 0:00:02.00

Peak level 100.0 %
Extraction speed 4.8 X
Track quality 100.0 %
Test CRC 4D6814F6
Copy CRC 4D6814F6
Track not present in AccurateRip database
Copy OK

Track 2

Filename H:\#NEW RIPS II\Status Quo - Collected\cd 2\02. Status Quo - Lies.wav

Pre-gap length 0:00:02.00

Peak level 99.9 %
Extraction speed 5.3 X
Track quality 100.0 %
Test CRC A8C54E39
Copy CRC A8C54E39
Track not present in AccurateRip database
Copy OK

Track 3

Filename H:\#NEW RIPS II\Status Quo - Collected\cd 2\03. Status Quo - Rock 'N' Roll.wav

Pre-gap length 0:00:02.00

Peak level 100.0 %
Extraction speed 5.8 X
Track quality 100.0 %
Test CRC 130DD926
Copy CRC 130DD926
Track not present in AccurateRip database
Copy OK

Track 4

Filename H:\#NEW RIPS II\Status Quo - Collected\cd 2\04. Status Quo - Something 'Bout You Baby I Like.wav

Pre-gap length 0:00:02.00

Peak level 100.0 %
Extraction speed 5.7 X
Track quality 100.0 %
Test CRC 06CDD51A
Copy CRC 06CDD51A
Track not present in AccurateRip database
Copy OK

Track 5

Filename H:\#NEW RIPS II\Status Quo - Collected\cd 2\05. Status Quo - Dear John.wav

Pre-gap length 0:00:02.00

Peak level 99.9 %
Extraction speed 6.0 X
Track quality 100.0 %
Test CRC C2671A1E
Copy CRC C2671A1E
Track not present in AccurateRip database
Copy OK

Track 6

Filename H:\#NEW RIPS II\Status Quo - Collected\cd 2\06. Status Quo - Ol' Rag Blues.wav

Pre-gap length 0:00:02.00

Peak level 100.0 %
Extraction speed 6.1 X
Track quality 100.0 %
Test CRC 3CD0B958
Copy CRC 3CD0B958
Track not present in AccurateRip database
Copy OK

Track 7

Filename H:\#NEW RIPS II\Status Quo - Collected\cd 2\07. Status Quo - Marguerita Time.wav

Pre-gap length 0:00:02.00

Peak level 100.0 %
Extraction speed 6.5 X
Track quality 100.0 %
Test CRC 50BD0C71
Copy CRC 50BD0C71
Track not present in AccurateRip database
Copy OK

Track 8

Filename H:\#NEW RIPS II\Status Quo - Collected\cd 2\08. Status Quo - The Wanderer.wav

Pre-gap length 0:00:02.00

Peak level 100.0 %
Extraction speed 6.8 X
Track quality 100.0 %
Test CRC AE6F0F9F
Copy CRC AE6F0F9F
Track not present in AccurateRip database
Copy OK

Track 9

Filename H:\#NEW RIPS II\Status Quo - Collected\cd 2\09. Status Quo - Rollin' Home.wav

Pre-gap length 0:00:02.00

Peak level 100.0 %
Extraction speed 7.3 X
Track quality 100.0 %
Test CRC 76B68DD2
Copy CRC 76B68DD2
Track not present in AccurateRip database
Copy OK

Track 10

Filename H:\#NEW RIPS II\Status Quo - Collected\cd 2\10. Status Quo - In the Army Now.wav

Pre-gap length 0:00:02.00

Peak level 100.0 %
Extraction speed 6.5 X
Track quality 99.9 %
Test CRC D5F80D21
Copy CRC D5F80D21
Track not present in AccurateRip database
Copy OK

Track 11

Filename H:\#NEW RIPS II\Status Quo - Collected\cd 2\11. Status Quo - Dreamin'.wav

Pre-gap length 0:00:02.00

Peak level 100.0 %
Extraction speed 7.4 X
Track quality 100.0 %
Test CRC 6836F07D
Copy CRC 6836F07D
Track not present in AccurateRip database
Copy OK

Track 12

Filename H:\#NEW RIPS II\Status Quo - Collected\cd 2\12. Status Quo - Ain't Complaining.wav

Pre-gap length 0:00:02.00

Peak level 100.0 %
Extraction speed 6.9 X
Track quality 99.9 %
Test CRC 746E9629
Copy CRC 746E9629
Track not present in AccurateRip database
Copy OK

Track 13

Filename H:\#NEW RIPS II\Status Quo - Collected\cd 2\13. Status Quo - Not at All.wav

Pre-gap length 0:00:01.98

Peak level 100.0 %
Extraction speed 7.8 X
Track quality 100.0 %
Test CRC 168C9457
Copy CRC 168C9457
Track not present in AccurateRip database
Copy OK

Track 14

Filename H:\#NEW RIPS II\Status Quo - Collected\cd 2\14. Status Quo - Can't Give You More.wav

Pre-gap length 0:00:02.00

Peak level 100.0 %
Extraction speed 7.2 X
Track quality 99.9 %
Test CRC 8324556D
Copy CRC 8324556D
Track not present in AccurateRip database
Copy OK

Track 15

Filename H:\#NEW RIPS II\Status Quo - Collected\cd 2\15. Status Quo - I Didn't Mean It.wav

Pre-gap length 0:00:02.00

Peak level 100.0 %
Extraction speed 7.0 X
Track quality 99.9 %
Test CRC 8DC4040B
Copy CRC 8DC4040B
Track not present in AccurateRip database
Copy OK

Track 16

Filename H:\#NEW RIPS II\Status Quo - Collected\cd 2\16. Status Quo - The Way It Goes.wav

Pre-gap length 0:00:02.00

Peak level 99.9 %
Extraction speed 8.8 X
Track quality 100.0 %
Test CRC FD4A74D6
Copy CRC FD4A74D6
Track not present in AccurateRip database
Copy OK

Track 17

Filename H:\#NEW RIPS II\Status Quo - Collected\cd 2\17. Status Quo - The Oriental.wav

Pre-gap length 0:00:02.00

Peak level 100.0 %
Extraction speed 9.1 X
Track quality 100.0 %
Test CRC 111689AB
Copy CRC 111689AB
Track not present in AccurateRip database
Copy OK

Track 18

Filename H:\#NEW RIPS II\Status Quo - Collected\cd 2\18. Status Quo - The Party Ain't Over Yet.wav

Pre-gap length 0:00:02.00

Peak level 99.9 %
Extraction speed 9.0 X
Track quality 100.0 %
Test CRC 558EFAFD
Copy CRC 558EFAFD
Track not present in AccurateRip database
Copy OK

Track 19

Filename H:\#NEW RIPS II\Status Quo - Collected\cd 2\19. Status Quo - Beginning of the End.wav

Pre-gap length 0:00:02.00

Peak level 96.9 %
Extraction speed 9.1 X
Track quality 100.0 %
Test CRC 6BC3F68B
Copy CRC 6BC3F68B
Track not present in AccurateRip database
Copy OK

Track 20

Filename H:\#NEW RIPS II\Status Quo - Collected\cd 2\20. Status Quo - Looking Out for Caroline.wav

Pre-gap length 0:00:02.00

Peak level 100.0 %
Extraction speed 7.7 X
Track quality 99.9 %
Test CRC 0FBE5DA0
Copy CRC 0FBE5DA0
Track not present in AccurateRip database
Copy OK


None of the tracks are present in the AccurateRip database

No errors occurred

End of status report

–– CUETools DB Plugin V2.1.6

[CTDB TOCID: 3oktWmU0aikQ6rimMkqbpgZPfJ0-] found
Submit result: 3oktWmU0aikQ6rimMkqbpgZPfJ0- has been confirmed
Track | CTDB Status
1 | (2/2) Accurately ripped
2 | (2/2) Accurately ripped
3 | (2/2) Accurately ripped
4 | (2/2) Accurately ripped
5 | (2/2) Accurately ripped
6 | (2/2) Accurately ripped
7 | (2/2) Accurately ripped
8 | (2/2) Accurately ripped
9 | (2/2) Accurately ripped
10 | (2/2) Accurately ripped
11 | (2/2) Accurately ripped
12 | (2/2) Accurately ripped
13 | (2/2) Accurately ripped
14 | (2/2) Accurately ripped
15 | (2/2) Accurately ripped
16 | (2/2) Accurately ripped
17 | (2/2) Accurately ripped
18 | (2/2) Accurately ripped
19 | (2/2) Accurately ripped
20 | (2/2) Accurately ripped


==== Log checksum 376819D979C2FC1121C754C9AD7ABAACE647124E71B5137C5514740A47439A01 ====

Exact Audio Copy V1.3 from 2. September 2016

EAC extraction logfile from 29. April 2018, 19:33

Status Quo / Collected (Disc 3)

Used drive : HL-DT-STDVDRAM GH24NSC0 Adapter: 1 ID: 0

Read mode : Secure
Utilize accurate stream : Yes
Defeat audio cache : Yes
Make use of C2 pointers : No

Read offset correction : 6
Overread into Lead-In and Lead-Out : No
Fill up missing offset samples with silence : Yes
Delete leading and trailing silent blocks : No
Null samples used in CRC calculations : Yes
Used interface : Native Win32 interface for Win NT & 2000
Gap handling : Appended to previous track

Used output format : User Defined Encoder
Selected bitrate : 1024 kBit/s
Quality : High
Add ID3 tag : No
Command line compressor : C:\Program Files (x86)\Exact Audio Copy\Flac\flac.exe
Additional command line options : -8 -V -T "ARTIST=%artist%" -T "TITLE=%title%" -T "ALBUM=%albumtitle%" -T "DATE=%year%" -T "TRACKNUMBER=%tracknr%" -T "GENRE=%genre%" -T "PERFORMER=%albuminterpret%" -T "COMPOSER=%composer%" %haslyrics%–tag-from-file=LYRICS="%lyricsfile%"%haslyrics% -T "ALBUMARTIST=%albumartist%" -T "DISCNUMBER=%cdnumber%" -T "TOTALDISCS=%totalcds%" -T "TOTALTRACKS=%numtracks%" -T "COMMENT=%comment%" %source% -o %dest%


TOC of the extracted CD

Track | Start | Length | Start sector | End sector
––––––––––––––––––––––––––––-
1 | 0:00.00 | 3:02.13 | 0 | 13662
2 | 3:02.13 | 3:15.38 | 13663 | 28325
3 | 6:17.51 | 2:47.63 | 28326 | 40913
4 | 9:05.39 | 5:32.38 | 40914 | 65851
5 | 14:38.02 | 7:51.30 | 65852 | 101206
6 | 22:29.32 | 5:57.25 | 101207 | 128006
7 | 28:26.57 | 3:31.67 | 128007 | 143898
8 | 31:58.49 | 4:13.06 | 143899 | 162879
9 | 36:11.55 | 3:49.29 | 162880 | 180083
10 | 40:01.09 | 3:15.11 | 180084 | 194719
11 | 43:16.20 | 3:33.27 | 194720 | 210721
12 | 46:49.47 | 3:31.08 | 210722 | 226554
13 | 50:20.55 | 3:22.08 | 226555 | 241712
14 | 53:42.63 | 4:10.48 | 241713 | 260510
15 | 57:53.36 | 4:11.62 | 260511 | 279397
16 | 62:05.23 | 3:49.07 | 279398 | 296579
17 | 65:54.30 | 2:35.14 | 296580 | 308218
18 | 68:29.44 | 4:39.00 | 308219 | 329143
19 | 73:08.44 | 3:23.45 | 329144 | 344413


Track 1

Filename H:\#NEW RIPS II\Status Quo - Collected\cd 3\01. The Spectres - I (Who Have Nothing).wav

Pre-gap length 0:00:02.00

Peak level 100.0 %
Extraction speed 1.1 X
Track quality 100.0 %
Test CRC 5A00B51C
Copy CRC 5A00B51C
Accurately ripped (confidence 1) [4C7F64ED] (AR v2)
Copy OK

Track 2

Filename H:\#NEW RIPS II\Status Quo - Collected\cd 3\02. The Spectres - Hurdy Gurdy Man.wav

Pre-gap length 0:00:02.00

Peak level 100.0 %
Extraction speed 1.0 X
Track quality 99.9 %
Test CRC EC0D41CC
Copy CRC EC0D41CC
Accurately ripped (confidence 1) [D2EC33D4] (AR v2)
Copy OK

Track 3

Filename H:\#NEW RIPS II\Status Quo - Collected\cd 3\03. Traffic Jam - Almost But Not Quite There.wav

Pre-gap length 0:00:02.00

Peak level 100.0 %
Extraction speed 1.2 X
Track quality 100.0 %
Test CRC 62D4DDC3
Copy CRC 62D4DDC3
Accurately ripped (confidence 1) [24B1187E] (AR v2)
Copy OK

Track 4

Filename H:\#NEW RIPS II\Status Quo - Collected\cd 3\04. Status Quo - Medley- The Anniversary Waltz.wav

Pre-gap length 0:00:02.00

Peak level 100.0 %
Extraction speed 1.5 X
Track quality 100.0 %
Test CRC 730E65DA
Copy CRC 730E65DA
Accurately ripped (confidence 1) [38533CEA] (AR v2)
Copy OK

Track 5

Filename H:\#NEW RIPS II\Status Quo - Collected\cd 3\05. Status Quo - Medley- Roadhouse Medley [Anniversary Waltz, Pt. 25].wav

Pre-gap length 0:00:02.00

Peak level 100.0 %
Extraction speed 1.7 X
Track quality 100.0 %
Test CRC 9BAFFF52
Copy CRC 9BAFFF52
Accurately ripped (confidence 1) [6C3E53FF] (AR v2)
Copy OK

Track 6

Filename H:\#NEW RIPS II\Status Quo - Collected\cd 3\06. Status Quo - In the Army Now.wav

Pre-gap length 0:00:02.00

Peak level 100.0 %
Extraction speed 1.8 X
Track quality 100.0 %
Test CRC F438EC81
Copy CRC F438EC81
Accurately ripped (confidence 1) [882AD6FF] (AR v2)
Copy OK

Track 7

Filename H:\#NEW RIPS II\Status Quo - Collected\cd 3\07. Status Quo - Running All Over the World.wav

Pre-gap length 0:00:02.00

Peak level 100.0 %
Extraction speed 1.8 X
Track quality 100.0 %
Test CRC 7B88C875
Copy CRC 7B88C875
Accurately ripped (confidence 1) [8A03313F] (AR v2)
Copy OK

Track 8

Filename H:\#NEW RIPS II\Status Quo - Collected\cd 3\08. Status Quo - It's Christmas Time.wav

Pre-gap length 0:00:02.00

Peak level 98.3 %
Extraction speed 1.9 X
Track quality 100.0 %
Test CRC B81F02AD
Copy CRC B81F02AD
Accurately ripped (confidence 1) [98FC85BD] (AR v2)
Copy OK

Track 9

Filename H:\#NEW RIPS II\Status Quo - Collected\cd 3\09. Status Quo - Blue-Eyed Lady.wav

Pre-gap length 0:00:02.00

Peak level 100.0 %
Extraction speed 1.7 X
Track quality 99.9 %
Test CRC 187A25D5
Copy CRC 187A25D5
Accurately ripped (confidence 1) [A19E58FA] (AR v2)
Copy OK

Track 10

Filename H:\#NEW RIPS II\Status Quo - Collected\cd 3\10. Status Quo - Caroline.wav

Pre-gap length 0:00:02.00

Peak level 100.0 %
Extraction speed 1.9 X
Track quality 100.0 %
Test CRC 3DBE1A02
Copy CRC 3DBE1A02
Accurately ripped (confidence 1) [02182BE4] (AR v2)
Copy OK

Track 11

Filename H:\#NEW RIPS II\Status Quo - Collected\cd 3\11. Status Quo - Hold You Back.wav

Pre-gap length 0:00:02.00

Peak level 100.0 %
Extraction speed 2.0 X
Track quality 100.0 %
Test CRC 465C11F8
Copy CRC 465C11F8
Accurately ripped (confidence 1) [BEE026FF] (AR v2)
Copy OK

Track 12

Filename H:\#NEW RIPS II\Status Quo - Collected\cd 3\12. Andy Bown - Another Shipwreck.wav

Pre-gap length 0:00:02.00

Peak level 100.0 %
Extraction speed 2.1 X
Track quality 100.0 %
Test CRC 9A2624A2
Copy CRC 9A2624A2
Accurately ripped (confidence 1) [8B2FEF23] (AR v2)
Copy OK

Track 13

Filename H:\#NEW RIPS II\Status Quo - Collected\cd 3\13. Coe Mysteries,Bob Mitchell - Ships in the Night.wav

Pre-gap length 0:00:02.00

Peak level 100.0 %
Extraction speed 2.1 X
Track quality 100.0 %
Test CRC F65BB2E9
Copy CRC F65BB2E9
Accurately ripped (confidence 1) [DD5A3B53] (AR v2)
Copy OK

Track 14

Filename H:\#NEW RIPS II\Status Quo - Collected\cd 3\14. The Party Boys - He's Gonna Step on You Again.wav

Pre-gap length 0:00:02.00

Peak level 89.9 %
Extraction speed 2.0 X
Track quality 99.9 %
Test CRC AC74DDFD
Copy CRC AC74DDFD
Accurately ripped (confidence 1) [6ED091E1] (AR v2)
Copy OK

Track 15

Filename H:\#NEW RIPS II\Status Quo - Collected\cd 3\15. John ''Rhino'' Edwards - Mine All Mine.wav

Pre-gap length 0:00:02.00

Peak level 100.0 %
Extraction speed 2.3 X
Track quality 100.0 %
Test CRC 49F18488
Copy CRC 49F18488
Accurately ripped (confidence 1) [90E53F6C] (AR v2)
Copy OK

Track 16

Filename H:\#NEW RIPS II\Status Quo - Collected\cd 3\16. Francis Rossi - One Step at a Time.wav

Pre-gap length 0:00:02.00

Peak level 100.0 %
Extraction speed 2.1 X
Track quality 99.9 %
Test CRC 36AE6E7B
Copy CRC 36AE6E7B
Accurately ripped (confidence 1) [F0F9C5BB] (AR v2)
Copy OK

Track 17

Filename H:\#NEW RIPS II\Status Quo - Collected\cd 3\17. Francis Rossi - Faded Memory.wav

Pre-gap length 0:00:02.00

Peak level 100.0 %
Extraction speed 2.2 X
Track quality 100.0 %
Test CRC B9769053
Copy CRC B9769053
Accurately ripped (confidence 1) [A0D1CD72] (AR v2)
Copy OK

Track 18

Filename H:\#NEW RIPS II\Status Quo - Collected\cd 3\18. Andy Bown - Rubber Gloves.wav

Pre-gap length 0:00:02.00

Peak level 100.0 %
Extraction speed 2.5 X
Track quality 100.0 %
Test CRC 1D565CA5
Copy CRC 1D565CA5
Accurately ripped (confidence 1) [630D22C0] (AR v2)
Copy OK

Track 19

Filename H:\#NEW RIPS II\Status Quo - Collected\cd 3\19. Scooter,Status Quo - Jump That Rock! (Whatever You Want).wav

Pre-gap length 0:00:02.00

Peak level 100.0 %
Extraction speed 2.4 X
Track quality 100.0 %
Test CRC 3BD2BE27
Copy CRC 3BD2BE27
Accurately ripped (confidence 1) [C6F22E7B] (AR v2)
Copy OK


All tracks accurately ripped

No errors occurred

End of status report

–– CUETools DB Plugin V2.1.6

[CTDB TOCID: _o4LuyJTrNMLeemc5iZP5uC.SAw-] found
Submit result: _o4LuyJTrNMLeemc5iZP5uC.SAw- has been confirmed
Track | CTDB Status
1 | (1/1) Accurately ripped
2 | (1/1) Accurately ripped
3 | (1/1) Accurately ripped
4 | (1/1) Accurately ripped
5 | (1/1) Accurately ripped
6 | (1/1) Accurately ripped
7 | (1/1) Accurately ripped
8 | (1/1) Accurately ripped
9 | (1/1) Accurately ripped
10 | (1/1) Accurately ripped
11 | (1/1) Accurately ripped
12 | (1/1) Accurately ripped
13 | (1/1) Accurately ripped
14 | (1/1) Accurately ripped
15 | (1/1) Accurately ripped
16 | (1/1) Accurately ripped
17 | (1/1) Accurately ripped
18 | (1/1) Accurately ripped
19 | (1/1) Accurately ripped


==== Log checksum FAF1EEB2A42539005F3A7D9C4C2701EEE3A7108CA2CEA3C427BF3427C56C1DB5 ====

––––––––––––––––––––––––––––––

Exact Audio Copy V1.3 from 2. September 2016

EAC extraction logfile from 29. April 2018, 19:33

Status Quo / Collected (Disc 3)

Used drive : HL-DT-STDVDRAM GH24NSC0 Adapter: 1 ID: 0

Read mode : Secure
Utilize accurate stream : Yes
Defeat audio cache : Yes
Make use of C2 pointers : No

Read offset correction : 6
Overread into Lead-In and Lead-Out : No
Fill up missing offset samples with silence : Yes
Delete leading and trailing silent blocks : No
Null samples used in CRC calculations : Yes
Used interface : Native Win32 interface for Win NT & 2000
Gap handling : Appended to previous track

Used output format : User Defined Encoder
Selected bitrate : 1024 kBit/s
Quality : High
Add ID3 tag : No
Command line compressor : C:\Program Files (x86)\Exact Audio Copy\Flac\flac.exe
Additional command line options : -8 -V -T "ARTIST=%artist%" -T "TITLE=%title%" -T "ALBUM=%albumtitle%" -T "DATE=%year%" -T "TRACKNUMBER=%tracknr%" -T "GENRE=%genre%" -T "PERFORMER=%albuminterpret%" -T "COMPOSER=%composer%" %haslyrics%–tag-from-file=LYRICS="%lyricsfile%"%haslyrics% -T "ALBUMARTIST=%albumartist%" -T "DISCNUMBER=%cdnumber%" -T "TOTALDISCS=%totalcds%" -T "TOTALTRACKS=%numtracks%" -T "COMMENT=%comment%" %source% -o %dest%


TOC of the extracted CD

Track | Start | Length | Start sector | End sector
––––––––––––––––––––––––––––-
1 | 0:00.00 | 3:02.13 | 0 | 13662
2 | 3:02.13 | 3:15.38 | 13663 | 28325
3 | 6:17.51 | 2:47.63 | 28326 | 40913
4 | 9:05.39 | 5:32.38 | 40914 | 65851
5 | 14:38.02 | 7:51.30 | 65852 | 101206
6 | 22:29.32 | 5:57.25 | 101207 | 128006
7 | 28:26.57 | 3:31.67 | 128007 | 143898
8 | 31:58.49 | 4:13.06 | 143899 | 162879
9 | 36:11.55 | 3:49.29 | 162880 | 180083
10 | 40:01.09 | 3:15.11 | 180084 | 194719
11 | 43:16.20 | 3:33.27 | 194720 | 210721
12 | 46:49.47 | 3:31.08 | 210722 | 226554
13 | 50:20.55 | 3:22.08 | 226555 | 241712
14 | 53:42.63 | 4:10.48 | 241713 | 260510
15 | 57:53.36 | 4:11.62 | 260511 | 279397
16 | 62:05.23 | 3:49.07 | 279398 | 296579
17 | 65:54.30 | 2:35.14 | 296580 | 308218
18 | 68:29.44 | 4:39.00 | 308219 | 329143
19 | 73:08.44 | 3:23.45 | 329144 | 344413


Track 1

Filename H:\#NEW RIPS II\Status Quo - Collected\cd 3\01. The Spectres - I (Who Have Nothing).wav

Pre-gap length 0:00:02.00

Peak level 100.0 %
Extraction speed 1.1 X
Track quality 100.0 %
Test CRC 5A00B51C
Copy CRC 5A00B51C
Accurately ripped (confidence 1) [4C7F64ED] (AR v2)
Copy OK

Track 2

Filename H:\#NEW RIPS II\Status Quo - Collected\cd 3\02. The Spectres - Hurdy Gurdy Man.wav

Pre-gap length 0:00:02.00

Peak level 100.0 %
Extraction speed 1.0 X
Track quality 99.9 %
Test CRC EC0D41CC
Copy CRC EC0D41CC
Accurately ripped (confidence 1) [D2EC33D4] (AR v2)
Copy OK

Track 3

Filename H:\#NEW RIPS II\Status Quo - Collected\cd 3\03. Traffic Jam - Almost But Not Quite There.wav

Pre-gap length 0:00:02.00

Peak level 100.0 %
Extraction speed 1.2 X
Track quality 100.0 %
Test CRC 62D4DDC3
Copy CRC 62D4DDC3
Accurately ripped (confidence 1) [24B1187E] (AR v2)
Copy OK

Track 4

Filename H:\#NEW RIPS II\Status Quo - Collected\cd 3\04. Status Quo - Medley- The Anniversary Waltz.wav

Pre-gap length 0:00:02.00

Peak level 100.0 %
Extraction speed 1.5 X
Track quality 100.0 %
Test CRC 730E65DA
Copy CRC 730E65DA
Accurately ripped (confidence 1) [38533CEA] (AR v2)
Copy OK

Track 5

Filename H:\#NEW RIPS II\Status Quo - Collected\cd 3\05. Status Quo - Medley- Roadhouse Medley [Anniversary Waltz, Pt. 25].wav

Pre-gap length 0:00:02.00

Peak level 100.0 %
Extraction speed 1.7 X
Track quality 100.0 %
Test CRC 9BAFFF52
Copy CRC 9BAFFF52
Accurately ripped (confidence 1) [6C3E53FF] (AR v2)
Copy OK

Track 6

Filename H:\#NEW RIPS II\Status Quo - Collected\cd 3\06. Status Quo - In the Army Now.wav

Pre-gap length 0:00:02.00

Peak level 100.0 %
Extraction speed 1.8 X
Track quality 100.0 %
Test CRC F438EC81
Copy CRC F438EC81
Accurately ripped (confidence 1) [882AD6FF] (AR v2)
Copy OK

Track 7

Filename H:\#NEW RIPS II\Status Quo - Collected\cd 3\07. Status Quo - Running All Over the World.wav

Pre-gap length 0:00:02.00

Peak level 100.0 %
Extraction speed 1.8 X
Track quality 100.0 %
Test CRC 7B88C875
Copy CRC 7B88C875
Accurately ripped (confidence 1) [8A03313F] (AR v2)
Copy OK

Track 8

Filename H:\#NEW RIPS II\Status Quo - Collected\cd 3\08. Status Quo - It's Christmas Time.wav

Pre-gap length 0:00:02.00

Peak level 98.3 %
Extraction speed 1.9 X
Track quality 100.0 %
Test CRC B81F02AD
Copy CRC B81F02AD
Accurately ripped (confidence 1) [98FC85BD] (AR v2)
Copy OK

Track 9

Filename H:\#NEW RIPS II\Status Quo - Collected\cd 3\09. Status Quo - Blue-Eyed Lady.wav

Pre-gap length 0:00:02.00

Peak level 100.0 %
Extraction speed 1.7 X
Track quality 99.9 %
Test CRC 187A25D5
Copy CRC 187A25D5
Accurately ripped (confidence 1) [A19E58FA] (AR v2)
Copy OK

Track 10

Filename H:\#NEW RIPS II\Status Quo - Collected\cd 3\10. Status Quo - Caroline.wav

Pre-gap length 0:00:02.00

Peak level 100.0 %
Extraction speed 1.9 X
Track quality 100.0 %
Test CRC 3DBE1A02
Copy CRC 3DBE1A02
Accurately ripped (confidence 1) [02182BE4] (AR v2)
Copy OK

Track 11

Filename H:\#NEW RIPS II\Status Quo - Collected\cd 3\11. Status Quo - Hold You Back.wav

Pre-gap length 0:00:02.00

Peak level 100.0 %
Extraction speed 2.0 X
Track quality 100.0 %
Test CRC 465C11F8
Copy CRC 465C11F8
Accurately ripped (confidence 1) [BEE026FF] (AR v2)
Copy OK

Track 12

Filename H:\#NEW RIPS II\Status Quo - Collected\cd 3\12. Andy Bown - Another Shipwreck.wav

Pre-gap length 0:00:02.00

Peak level 100.0 %
Extraction speed 2.1 X
Track quality 100.0 %
Test CRC 9A2624A2
Copy CRC 9A2624A2
Accurately ripped (confidence 1) [8B2FEF23] (AR v2)
Copy OK

Track 13

Filename H:\#NEW RIPS II\Status Quo - Collected\cd 3\13. Coe Mysteries,Bob Mitchell - Ships in the Night.wav

Pre-gap length 0:00:02.00

Peak level 100.0 %
Extraction speed 2.1 X
Track quality 100.0 %
Test CRC F65BB2E9
Copy CRC F65BB2E9
Accurately ripped (confidence 1) [DD5A3B53] (AR v2)
Copy OK

Track 14

Filename H:\#NEW RIPS II\Status Quo - Collected\cd 3\14. The Party Boys - He's Gonna Step on You Again.wav

Pre-gap length 0:00:02.00

Peak level 89.9 %
Extraction speed 2.0 X
Track quality 99.9 %
Test CRC AC74DDFD
Copy CRC AC74DDFD
Accurately ripped (confidence 1) [6ED091E1] (AR v2)
Copy OK

Track 15

Filename H:\#NEW RIPS II\Status Quo - Collected\cd 3\15. John ''Rhino'' Edwards - Mine All Mine.wav

Pre-gap length 0:00:02.00

Peak level 100.0 %
Extraction speed 2.3 X
Track quality 100.0 %
Test CRC 49F18488
Copy CRC 49F18488
Accurately ripped (confidence 1) [90E53F6C] (AR v2)
Copy OK

Track 16

Filename H:\#NEW RIPS II\Status Quo - Collected\cd 3\16. Francis Rossi - One Step at a Time.wav

Pre-gap length 0:00:02.00

Peak level 100.0 %
Extraction speed 2.1 X
Track quality 99.9 %
Test CRC 36AE6E7B
Copy CRC 36AE6E7B
Accurately ripped (confidence 1) [F0F9C5BB] (AR v2)
Copy OK

Track 17

Filename H:\#NEW RIPS II\Status Quo - Collected\cd 3\17. Francis Rossi - Faded Memory.wav

Pre-gap length 0:00:02.00

Peak level 100.0 %
Extraction speed 2.2 X
Track quality 100.0 %
Test CRC B9769053
Copy CRC B9769053
Accurately ripped (confidence 1) [A0D1CD72] (AR v2)
Copy OK

Track 18

Filename H:\#NEW RIPS II\Status Quo - Collected\cd 3\18. Andy Bown - Rubber Gloves.wav

Pre-gap length 0:00:02.00

Peak level 100.0 %
Extraction speed 2.5 X
Track quality 100.0 %
Test CRC 1D565CA5
Copy CRC 1D565CA5
Accurately ripped (confidence 1) [630D22C0] (AR v2)
Copy OK

Track 19

Filename H:\#NEW RIPS II\Status Quo - Collected\cd 3\19. Scooter,Status Quo - Jump That Rock! (Whatever You Want).wav

Pre-gap length 0:00:02.00

Peak level 100.0 %
Extraction speed 2.4 X
Track quality 100.0 %
Test CRC 3BD2BE27
Copy CRC 3BD2BE27
Accurately ripped (confidence 1) [C6F22E7B] (AR v2)
Copy OK


All tracks accurately ripped

No errors occurred

End of status report

–– CUETools DB Plugin V2.1.6

[CTDB TOCID: _o4LuyJTrNMLeemc5iZP5uC.SAw-] found
Submit result: _o4LuyJTrNMLeemc5iZP5uC.SAw- has been confirmed
Track | CTDB Status
1 | (1/1) Accurately ripped
2 | (1/1) Accurately ripped
3 | (1/1) Accurately ripped
4 | (1/1) Accurately ripped
5 | (1/1) Accurately ripped
6 | (1/1) Accurately ripped
7 | (1/1) Accurately ripped
8 | (1/1) Accurately ripped
9 | (1/1) Accurately ripped
10 | (1/1) Accurately ripped
11 | (1/1) Accurately ripped
12 | (1/1) Accurately ripped
13 | (1/1) Accurately ripped
14 | (1/1) Accurately ripped
15 | (1/1) Accurately ripped
16 | (1/1) Accurately ripped
17 | (1/1) Accurately ripped
18 | (1/1) Accurately ripped
19 | (1/1) Accurately ripped


==== Log checksum FAF1EEB2A42539005F3A7D9C4C2701EEE3A7108CA2CEA3C427BF3427C56C1DB5 ====

Thanks to the Original ripper (Unknown)