Subcategories

Steen Thottrup - Sunset People

Posted By: FLESH
Steen Thottrup - Sunset People

Steen Thottrup - Sunset People
Electronic, Chillout, Downtempo
FLAC+cue+log | 374.0 Mb | MP3, 192 Kbps | 83.3 Mb | Covers
Label: Ibizarre Records | Catalog#: IBZ027 | Released: 03.04.2009

This release includes some his finest work; a collection of his interpretations of chillout and lounge that have graced some of the millions of compilations where he is to be found.

Tracklisting:
01. I Hope Yesterday Never Comes (vocals by Anne K Cello)
02. To You (vocals by Annette Berg)
03. Heading For The Sunrise (vocals by Annette Berg Cello)
04. A New Day Coming (vocals by Annette Berg Cello)
05. If You Were Here Tonight (vocals by Steen Thottrup & Annette Berg)
06. Greetings From Abroad (Speech by Yaiza Rodriguez)
07. El Alba
08. Lunar Landscape (vocals by Annette Berg)
09. Save A Little Prayer (vocals by Annette Berg)
10. Sunset People (vocals by Katie McGregor)
11. Serenity (vocals by Anja Schreiber)

Exact Audio Copy V0.99 prebeta 4 from 23. January 2008

EAC extraction logfile from 25. April 2009, 11:30

Steen Thottrup / Sunset People on http://lossless-room.nnm.ru

Used drive : PIONEER DVD-RW DVR-112D Adapter: 1 ID: 0

Read mode : Secure
Utilize accurate stream : Yes
Defeat audio cache : Yes
Make use of C2 pointers : No

Read offset correction : 48
Overread into Lead-In and Lead-Out : No
Fill up missing offset samples with silence : Yes
Delete leading and trailing silent blocks : No
Null samples used in CRC calculations : Yes
Used interface : Installed external ASPI interface

Used output format : User Defined Encoder
Selected bitrate : 192 kBit/s
Quality : Low
Add ID3 tag : Yes
Command line compressor : C:\Program Files\E A C Audio\Flac\flac.exe
Additional command line options : -V -8 -T "artist=%a" -T "title=%t" -T "album=%g" -T "date=%y" -T "tracknumber=%n" -T "genre=%m" %s


TOC of the extracted CD

Track | Start | Length | Start sector | End sector
––––––––––––––––––––––––––––-
1 | 0:00.00 | 6:40.72 | 0 | 30071
2 | 6:40.72 | 5:01.16 | 30072 | 52662
3 | 11:42.13 | 5:41.43 | 52663 | 78280
4 | 17:23.56 | 5:50.04 | 78281 | 104534
5 | 23:13.60 | 5:31.30 | 104535 | 129389
6 | 28:45.15 | 4:42.68 | 129390 | 150607
7 | 33:28.08 | 5:38.60 | 150608 | 176017
8 | 39:06.68 | 5:35.02 | 176018 | 201144
9 | 44:41.70 | 6:37.20 | 201145 | 230939
10 | 51:19.15 | 4:38.74 | 230940 | 251863
11 | 55:58.14 | 4:59.02 | 251864 | 274290


Range status and errors

Selected range

Filename G:\lossless-room.nnm.ru\Steen Thottrup - Sunset People\Steen Thottrup - Sunset People.wav

Peak level 97.7 %
Range quality 99.9 %
Test CRC F862ADD9
Copy CRC F862ADD9
Copy OK

No errors occurred


AccurateRip summary

Track 1 not present in database
Track 2 not present in database
Track 3 not present in database
Track 4 not present in database
Track 5 not present in database
Track 6 not present in database
Track 7 not present in database
Track 8 not present in database
Track 9 not present in database
Track 10 not present in database
Track 11 not present in database

None of the tracks are present in the AccurateRip database

End of status report


lossless
Скачать с RapidShare
Part 1 | Part 2 | Part 3 | Part 4

MP3
Скачать с RapidShare
Скачать с RapidShare

Covers
Covers

Folder Music RapidShare

Welcome to my Blog