Subcategories

Steve Jansen - The Occurrence of Slope (2008) [DVD] + Slope (2007) [CD] (ft. David Sylvian) [combined repost]

Posted By: ruskaval
Steve Jansen - The Occurrence of Slope (2008) [DVD] + Slope (2007) [CD] (ft. David Sylvian) [combined repost]

Steve Jansen - The Occurrence of Slope (2008) [DVD] + Slope (2007) [CD] (ft. David Sylvian)
EAC rip (secure mode) | FLAC (tracks)+CUE+LOG -> 271 Mb | MP3 @320 -> 120 Mb
DVD-9 -> 6.03 Gb | All Regions| NTSC 16:9 | LinearPCM, 2 ch | 01:38 | ISO Image
Full Artwork @ 300 dpi (png) -> 45 Mb | 5% repair rar
© 2007, 2008 SamadhiSound / P-Vine Records | sound cd ss012 / PVDV-47
Experimental / Experimental Electronic / Avant-Garde / Ambient

Steve Jansen's live performance in Tokyo Feb 29th 2008 - filmed in high definition. Live content includes previously unreleased music as well as a live interpretation of the soundtrack Ascent written for Shoko Ise's film installation Swimming in Qualia. DVD extra features include exclusive, unreleased collaborative works by Jansen & Ise - 4 film shorts with looped playback. + David Sylvian's brother gives solo albums by drummers a good name.
Steve Jansen - The Occurrence of Slope (2008) [DVD] + Slope (2007) [CD] (ft. David Sylvian) [combined repost]

Steve Jansen - The Occurrence of Slope (2008) [DVD9] {P-Vine Records, PVDV-47}
DVD-9 -> 6.03 Gb | All Regions| NTSC 16:9 | LinearPCM, 2 ch | 01:38 | ISO Image
Full Artwork @ 300 dpi (png) -> 45 Mb
© 2008 P-Vine Records / Epiphany Works | PVDV-47

Steve Jansen's live performance in Tokyo Feb 29th 2008 - filmed in high definition. This Japanese import features the following:
The musicians onstage:
Steve Jansen (drums, keyboards, computer programming, string arrangements)
Keigo Oyamada (guitars)
Masakatsu Takagi (piano, keyboards)
String Quartet lead by Seigen Tokuzawa

Visuals by Shoko Ise.

Vocalists on screen during the performance:
Tim Elsenburg (Sweet Billy Pilgrim)
Thomas Feiner
Anja Garbarek
Nina Kinert
David Sylvian
Joan Wasser

tracklist:
Part I (Slope) Live

01. Prelude (Opening Music)
02. Grip
03. Sleepyard
04. Cancelled Pieces
05. December Train
06. Sow The Salt
07. Gap Of Cloud
08. Playground Martyrs
09. A Way Of Disappearing
10. Ballad Of A Deadman
11. Conversation Over
12. Life Moves On
13. Playground Martyrs (Reprise)

Part II (Swimming In Qualia)
14. Ascent
15. Played Out (Closing Music)

Extra Contents (Passage)
01. Lingering
02. Dance Of Separation
03. Resistentialism
04. Noema

Steve Jansen - The Occurrence of Slope (2008) [DVD] + Slope (2007) [CD] (ft. David Sylvian) [combined repost]

Steve Jansen - The Occurrence of Slope (2008) [DVD] + Slope (2007) [CD] (ft. David Sylvian) [combined repost]

Steve Jansen - The Occurrence of Slope (2008) [DVD] + Slope (2007) [CD] (ft. David Sylvian) [combined repost]

Steve Jansen - The Occurrence of Slope (2008) [DVD] + Slope (2007) [CD] (ft. David Sylvian) [combined repost]

Steve Jansen - The Occurrence of Slope (2008) [DVD] + Slope (2007) [CD] (ft. David Sylvian) [combined repost]


––––––––––––––

Steve Jansen - The Occurrence of Slope (2008) [DVD] + Slope (2007) [CD] (ft. David Sylvian) [combined repost]

Steve Jansen - Slope (2007) {Samadhisound} (ft. David Sylvian)
EAC rip (secure mode) | FLAC (tracks)+CUE+LOG -> 271 Mb | MP3 @320 -> 120 Mb | Artwork | 5% repair rar
© 2007 SamadhiSound | sound cd ss012

Former Japan band member and regular David Sylvian collaborator Steve Jansen releases his astonishing solo album on Samadhi Sound this Autumn. On ‘Slope’, tension underlies the crisp rhythms and intricate programming, while a collection of distinctive vocalists draw out the sentiment and expression in his songwriting. The album features guest contributions from Sweet Billy Pilgrim, Thomas Feiner, Anja Garbarek, Nina Kinert, David Sylvian, Theo Travis and Joan Wasser (Joan As Policewoman).

This debut from former Japan drummer Steve Jansen is as intriguing as it is unclassifiable. Featuring guest vocalists who include his brother and long-time collaborator David Sylvian, and the delightful Nina Kinert, Slope is an extended experiment in forms: electronic minimalism, blues, jazz, even pop. Jansen doesn't sing, nor is he a notable lyricist (he tends to leave the words to his brother). But he is a remarkable programmer and sampler, an electronic composer as interested in formlessness as he is in form, in the value of silence as much as he is in sound.

tracklist:
01. Grip
02. Sleepyard
03. Cancelled Pieces featuring Anja Garbarek
04. December Train
05. Sow The Salt
06. Gap Of Cloud
07. Playground Martyrs
08. A Way Of Disappearing
09. Ballad Of A Deadman featuring David Sylvian & Joan Wasser
10. Conversation Over
11. Life Moves On
12. Playground Martyrs (reprise) featuring Nina Kinert

Steve Jansen - The Occurrence of Slope (2008) [DVD] + Slope (2007) [CD] (ft. David Sylvian) [combined repost]

Steve Jansen - The Occurrence of Slope (2008) [DVD] + Slope (2007) [CD] (ft. David Sylvian) [combined repost]

Exact Audio Copy V0.99 prebeta 5 from 4. May 2009

EAC extraction logfile from 12. January 2013, 22:27

Steve Jansen / Slope

Used drive : PLEXTOR DVDR PX-L890SA Adapter: 6 ID: 0

Read mode : Secure
Utilize accurate stream : Yes
Defeat audio cache : Yes
Make use of C2 pointers : No

Read offset correction : 6
Overread into Lead-In and Lead-Out : No
Fill up missing offset samples with silence : Yes
Delete leading and trailing silent blocks : No
Null samples used in CRC calculations : Yes
Used interface : Native Win32 interface for Win NT & 2000
Gap handling : Appended to previous track

Used output format : User Defined Encoder
Selected bitrate : 1024 kBit/s
Quality : High
Add ID3 tag : No
Command line compressor : C:\Program Files (x86)\FLAC\flac.exe
Additional command line options : -8 -V -T "ARTIST=%a" -T "TITLE=%t" -T "ALBUM=%g" -T "DATE=%y" -T "TRACKNUMBER=%n" -T "GENRE=%m" -T "COMMENT=EAC FLAC -8" %s


TOC of the extracted CD

Track | Start | Length | Start sector | End sector
––––––––––––––––––––––––––––-
1 | 0:00.00 | 6:42.29 | 0 | 30178
2 | 6:42.29 | 5:13.16 | 30179 | 53669
3 | 11:55.45 | 3:20.38 | 53670 | 68707
4 | 15:16.08 | 4:14.17 | 68708 | 87774
5 | 19:30.25 | 5:49.63 | 87775 | 114012
6 | 25:20.13 | 2:45.07 | 114013 | 126394
7 | 28:05.20 | 3:02.06 | 126395 | 140050
8 | 31:07.26 | 1:57.71 | 140051 | 148896
9 | 33:05.22 | 6:25.08 | 148897 | 177779
10 | 39:30.30 | 5:07.70 | 177780 | 200874
11 | 44:38.25 | 2:25.04 | 200875 | 211753
12 | 47:03.29 | 3:01.03 | 211754 | 225331


Track 1

Filename C:\EAC\jansen_slope\01 - Grip.wav

Pre-gap length 0:00:02.00

Peak level 100.0 %
Track quality 100.0 %
Test CRC 780A9F48
Copy CRC 780A9F48
Track not present in AccurateRip database
Copy OK

Track 2

Filename C:\EAC\jansen_slope\02 - Sleepyard.wav

Pre-gap length 0:00:00.08

Peak level 100.0 %
Track quality 100.0 %
Test CRC 935FDB11
Copy CRC 935FDB11
Track not present in AccurateRip database
Copy OK

Track 3

Filename C:\EAC\jansen_slope\03 - Cancelled Pieces.wav

Pre-gap length 0:00:00.13

Peak level 100.0 %
Track quality 100.0 %
Test CRC FCC0949E
Copy CRC FCC0949E
Track not present in AccurateRip database
Copy OK

Track 4

Filename C:\EAC\jansen_slope\04 - December Train.wav

Pre-gap length 0:00:00.02

Peak level 100.0 %
Track quality 100.0 %
Test CRC 296F2758
Copy CRC 296F2758
Track not present in AccurateRip database
Copy OK

Track 5

Filename C:\EAC\jansen_slope\05 - Sow The Salt.wav

Pre-gap length 0:00:00.10

Peak level 99.5 %
Track quality 100.0 %
Test CRC 4A1CBD0E
Copy CRC 4A1CBD0E
Track not present in AccurateRip database
Copy OK

Track 6

Filename C:\EAC\jansen_slope\06 - Gap Of Cloud.wav

Pre-gap length 0:00:00.02

Peak level 61.7 %
Track quality 100.0 %
Test CRC 002190EB
Copy CRC 002190EB
Track not present in AccurateRip database
Copy OK

Track 7

Filename C:\EAC\jansen_slope\07 - Playground Martyrs.wav

Peak level 99.4 %
Track quality 100.0 %
Test CRC 236C19CB
Copy CRC 236C19CB
Track not present in AccurateRip database
Copy OK

Track 8

Filename C:\EAC\jansen_slope\08 - A Way Of Disappearing.wav

Peak level 63.8 %
Track quality 100.0 %
Test CRC 21B6CC5E
Copy CRC 21B6CC5E
Accurately ripped (confidence 1) [FEC68D1C]
Copy OK

Track 9

Filename C:\EAC\jansen_slope\09 - Ballad Of A Deadman.wav

Peak level 100.0 %
Track quality 100.0 %
Test CRC AF6CABFC
Copy CRC AF6CABFC
Track not present in AccurateRip database
Copy OK

Track 10

Filename C:\EAC\jansen_slope\10 - Conversation Over.wav

Pre-gap length 0:00:00.09

Peak level 99.3 %
Track quality 100.0 %
Test CRC 87635A30
Copy CRC 87635A30
Track not present in AccurateRip database
Copy OK

Track 11

Filename C:\EAC\jansen_slope\11 - Life Moves On.wav

Peak level 99.8 %
Track quality 100.0 %
Test CRC BBAE8FC1
Copy CRC BBAE8FC1
Track not present in AccurateRip database
Copy OK

Track 12

Filename C:\EAC\jansen_slope\12 - Playground Martyrs (reprise).wav

Peak level 99.4 %
Track quality 100.0 %
Test CRC B49C7186
Copy CRC B49C7186
Track not present in AccurateRip database
Copy OK


1 track(s) accurately ripped
11 track(s) not present in the AccurateRip database

Some tracks could not be verified as accurate

No errors occurred

End of status report


Thanks to 0xxa (Slope)!


Steve Jansen - The Occurrence of Slope (2008) [DVD9] {P-Vine Records, PVDV-47}

UPLOADED Linkz

BITSHARE Linkz



Steve Jansen - Slope (2007) {Samadhisound} (ft. David Sylvian)

UPLOADED Linkz

BITSHARE Linkz