Subcategories

Steve Roach - Nostalgia for the Future (2017)

Posted By: delpotro
Steve Roach - Nostalgia for the Future (2017)

Steve Roach - Nostalgia for the Future (2017)
EAC Rip | FLAC (tracks+log+.cue) | 01:13:52 | 292 Mb
Electronic, Ambient | Label: Timeroom Editions

A deep ambient flow of six interconnected soundworld immersions evoking an echo in time, emanating in all directions. The presence of life’s nostalgic imprints casts this sense forward into a future state of longing and etheric reveries just out of reach but coming into form.

The mysterious - visceral power of sound works on many levels as a sensory activating experience. This is one of the many components that makes the music Steve Roach creates so nourishing, and alive. Through a deeper listening into the interweaves of emotion, place and time we can find solace, and an expanded sense of being. This is the realm where Nostalgia for the Future strives to dwell.

Created between January and July 2017 this project was born from the solitude and focus from within The Timeroom studio in Baja Arizona. The result is this alluring time echo, a Nostalgia for the Future fully realized for the here and now.

Nostalgic reference points : Mystic Chords and Sacred Spaces, The Magnificent Void, Dynamic Stillness
Tracklist:
1. Home Now (19:48)
2. The Rising Tide (11:31)
3. The Rising Tide Part Two (11:37)
4. Inside The Inside (07:44)
5. Nostalgia In Waves (08:11)
6. For The Future (15:01)

Exact Audio Copy V1.3 from 2. September 2016

EAC extraction logfile from 20. August 2017, 19:45

Steve Roach / Nostalgia For The Future

Used drive : PLDS DVD+-RW DH-16ABS Adapter: 1 ID: 0

Read mode : Secure
Utilize accurate stream : Yes
Defeat audio cache : Yes
Make use of C2 pointers : No

Read offset correction : 6
Overread into Lead-In and Lead-Out : No
Fill up missing offset samples with silence : Yes
Delete leading and trailing silent blocks : No
Null samples used in CRC calculations : Yes
Used interface : Native Win32 interface for Win NT & 2000
Gap handling : Appended to previous track

Used output format : User Defined Encoder
Selected bitrate : 1024 kBit/s
Quality : High
Add ID3 tag : No
Command line compressor : C:\Program Files (x86)\Exact Audio Copy\Flac\flac.exe
Additional command line options : -8 -V -T "ARTIST=%artist%" -T "TITLE=%title%" -T "ALBUM=%albumtitle%" -T "DATE=%year%" -T "TRACKNUMBER=%tracknr%" -T "GENRE=%genre%" -T "PERFORMER=%albuminterpret%" -T "COMPOSER=%composer%" %haslyrics%–tag-from-file=LYRICS="%lyricsfile%"%haslyrics% -T "ALBUMARTIST=%albumartist%" -T "DISCNUMBER=%cdnumber%" -T "TOTALDISCS=%totalcds%" -T "TOTALTRACKS=%numtracks%" -T "COMMENT=%comment%" %source% -o %dest%


TOC of the extracted CD

Track | Start | Length | Start sector | End sector
––––––––––––––––––––––––––––-
1 | 0:00.00 | 19:48.34 | 0 | 89133
2 | 19:48.34 | 11:31.12 | 89134 | 140970
3 | 31:19.46 | 11:37.01 | 140971 | 193246
4 | 42:56.47 | 7:43.65 | 193247 | 228036
5 | 50:40.37 | 8:11.14 | 228037 | 264875
6 | 58:51.51 | 15:01.06 | 264876 | 332456


Track 1

Filename F:\Apollo\Steve Roach - Nostalgia For The Future\01 Home Now.wav

Pre-gap length 0:00:02.00

Peak level 96.8 %
Extraction speed 2.5 X
Track quality 100.0 %
Test CRC 802A0DAF
Copy CRC 802A0DAF
Track not present in AccurateRip database
Copy OK

Track 2

Filename F:\Apollo\Steve Roach - Nostalgia For The Future\02 The Rising Tide.wav

Peak level 84.2 %
Extraction speed 3.1 X
Track quality 100.0 %
Test CRC 4D36AD19
Copy CRC 4D36AD19
Track not present in AccurateRip database
Copy OK

Track 3

Filename F:\Apollo\Steve Roach - Nostalgia For The Future\03 The Rising Tide Part Two.wav

Peak level 96.8 %
Extraction speed 3.5 X
Track quality 100.0 %
Test CRC AA15C705
Copy CRC AA15C705
Track not present in AccurateRip database
Copy OK

Track 4

Filename F:\Apollo\Steve Roach - Nostalgia For The Future\04 Inside The Inside.wav

Peak level 83.6 %
Extraction speed 3.7 X
Track quality 100.0 %
Test CRC C495C96B
Copy CRC C495C96B
Track not present in AccurateRip database
Copy OK

Track 5

Filename F:\Apollo\Steve Roach - Nostalgia For The Future\05 Nostalgia In Waves.wav

Peak level 86.4 %
Extraction speed 3.9 X
Track quality 100.0 %
Test CRC E2D04DAB
Copy CRC E2D04DAB
Track not present in AccurateRip database
Copy OK

Track 6

Filename F:\Apollo\Steve Roach - Nostalgia For The Future\06 For The Future.wav

Peak level 91.3 %
Extraction speed 3.9 X
Track quality 99.9 %
Test CRC 572E5D9B
Copy CRC 572E5D9B
Track not present in AccurateRip database
Copy OK


None of the tracks are present in the AccurateRip database

No errors occurred

End of status report

–– CUETools DB Plugin V2.1.6

[CTDB TOCID: Vn_0vd_LooodSGYDUlAjA5cl0KU-] disk not present in database
Submit result: Vn_0vd_LooodSGYDUlAjA5cl0KU- has been uploaded


==== Log checksum 5FD4CCC4092C9D917952B56B920AAC13EE48FDDFBF3BD7803D5A34B7CAE4CE8F ====

Thanks to the Original ripper lifeisjustagame !