Subcategories

Karlheinz Stockhausen - Spiral (hatART)

Posted By: Antidatum
Karlheinz Stockhausen - Spiral (hatART)

Karlheinz Stockhausen - Spiral (hatART)
Avant-Garde | FLAC, IMG+CUE, LOG, artwork | 1CD | 215 MB
Label: hatART | Catalog Number: 6132 | Published: 1994

“Repeat the previous event several times, / transposing each time in all parameters / and transcend it beyond the limits / of your previous playing/singing technique / and then, also beyond the limitations / of your instrument/voice // This instruction applies to all visual and theatrical possibilities. // From this point, retain what you have experienced / in the extension of your limits, / and use it in this and / all future performances of SPIRAL.” [K.Stockhausen]

Here we have four realizations of SPIRAL by Eberhard Blum which haven't been published on Avax yet.

Performer
Eberhard Blum - flute, voice, shortwave receiver

Tracklist
1. Realisation A 14:12
2. Realisation B 20:10
3. Realisation C 12:24
4. Realisation D 11:44


Exact Audio Copy V0.99 prebeta 4 from 23. January 2008

EAC extraction logfile from 29. December 2009, 10:37

Unknown Artist / Unknown Title

Used drive : Optiarc DVD+-RW AD-5560A Adapter: 0 ID: 0

Read mode : Burst

Read offset correction : 0
Overread into Lead-In and Lead-Out : No
Fill up missing offset samples with silence : Yes
Delete leading and trailing silent blocks : No
Null samples used in CRC calculations : No
Used interface : Native Win32 interface for Win NT & 2000

Used output format : User Defined Encoder
Selected bitrate : 128 kBit/s
Quality : High
Add ID3 tag : No
Command line compressor : C:\Program Files\FLAC\flac.exe
Additional command line options : -8 -T "artist=%a" -T "title=%t" -T "album=%g" -T "date=%y" -T "tracknumber=%n" -T "genre=%m" %s


TOC of the extracted CD

Track | Start | Length | Start sector | End sector
––––––––––––––––––––––––––––-
1 | 0:00.00 | 14:12.62 | 0 | 63961
2 | 14:12.62 | 20:10.00 | 63962 | 154711
3 | 34:22.62 | 12:24.00 | 154712 | 210511
4 | 46:46.62 | 11:44.13 | 210512 | 263324


Range status and errors

Selected range

Filename C:\Temp\EAC\Stockhausen-Spiral.wav

Timing problem 0:00:29
Timing problem 0:01:12
Timing problem 0:01:22

Peak level 80.1 %
Copy CRC ABDB7BFE
Copy finished

No errors occurred

End of status report

Music
part1
part2

Artwork
part1

As a bonus I offer a PDF scan of Michael Kurtz's book “Stockhausen. A Biography” (faber and faber, 1994). It's a great reading and introduction to Stockhausen's world. Enjoy!

Book
part1