Subcategories

Stravinsky - Petrouchka (original 1911 version) - LSO, Abbado (1981) {Deutsche Grammophon 400 042-2}

Posted By: ruskaval
Stravinsky - Petrouchka (original 1911 version) - LSO, Abbado (1981) {Deutsche Grammophon 400 042-2}

Stravinsky - Petrouchka (original 1911 version) - LSO, Abbado (1981) {Deutsche Grammophon 400 042-2}
EAC rip (secure mode) | FLAC (tracks)+CUE+LOG -> 145 Mb | MP3 @320 -> 81 Mb
Full Artwork @ 300 dpi (png) -> 65 Mb | 5% repair rar
© 1981 Polydor / Deutsche Grammophon | 400 042-2
Classical / Early 20th Century

Abbado's splendid Petrushka was among the very first CDs to be reviewed in these pages. Robert Layton extended a warm welcome in March 1983. The fact that it appeared with no coupling didn't seem to bother him unduly at the time; I've no doubt that it would today. … The Petrushka is full of sensitive and dramatic detail: I don't know of a more intense account of the poignant scene in Petrushka's tiny backstage cell—all shadow and nervous apprehensiveness. Nor have we seen any more clearly into the elaborate texturing of the outer tableaux (this is the more lavishly scored original version); the tactility of the inner-part writing is constantly arresting. Vividly and imaginatively characterized, these performances are shining examples of Abbado's best work with the LSO. (from the review of the Mussorgsky/Stravinsky reissue DG 423901)
Stravinsky - Petrouchka (original 1911 version) - LSO, Abbado (1981) {Deutsche Grammophon 400 042-2}


Musicians:
IGOR STRAWINSKY (1882-1971)
Petrouchka
Scenes burlesques en 4 tableaux
d'Igor Strawinsky et Alexandre Benois (Version originale de 1911)


London Symphony Orchestra
Leslie Howard
, piano
Claudio Abbado

Stravinsky - Petrouchka (original 1911 version) - LSO, Abbado (1981) {Deutsche Grammophon 400 042-2}


tracklist:
01 - I. Fete populaire de la semaine grasse - Le tour de passe-passe
02 - Danse russe
03 - II. Chez Petrouchka
04 - III. Chez le maure - Danse de la ballerine -
05 - Valse. La ballerine et le maure
06 - IV. Fete populaire de la semaine grasse (Vers le soir)

Production and Recording Supervision: Rainer Brock
Recording Engineer: Klaus Hiemann
Editing: Reinhild Schmidt
© 1981 Polydor International GmbH, Hamburg
Deutsche Grammophon 400 042-2

Exact Audio Copy V1.0 beta 3 from 29. August 2011

EAC extraction logfile from 20. January 2014, 17:59

Stravinsky / Petrouchka - London Symphony Orchestra, Claudio Abbado

Used drive : HL-DT-STDVD-ROM GDR8082N Adapter: 1 ID: 0

Read mode : Secure
Utilize accurate stream : Yes
Defeat audio cache : Yes
Make use of C2 pointers : No

Read offset correction : 102
Overread into Lead-In and Lead-Out : No
Fill up missing offset samples with silence : Yes
Delete leading and trailing silent blocks : No
Null samples used in CRC calculations : Yes
Used interface : Installed external ASPI interface
Gap handling : Appended to previous track

Used output format : User Defined Encoder
Selected bitrate : 896 kBit/s
Quality : High
Add ID3 tag : No
Command line compressor : C:\Program Files\Exact Audio Copy\Flac\flac.exe
Additional command line options : -6 -V -T "ARTIST=%artist%" -T "TITLE=%title%" -T "ALBUM=%albumtitle%" -T "DATE=%year%" -T "TRACKNUMBER=%tracknr%" -T "TOTALTRACKS=%numtracks%" -T "GENRE=%genre%" -T "COMPOSER=%composer%" -T "ALBUMARTIST=%albumartist%" -T "ALBUM ARTIST=%albumartist%" -T "COMMENT=EAC Secure Mode, Test & Copy, AccurateRip, FLAC -6" %source%


TOC of the extracted CD

Track | Start | Length | Start sector | End sector
––––––––––––––––––––––––––––-
1 | 0:00.32 | 7:13.73 | 32 | 32579
2 | 7:14.30 | 2:45.35 | 32580 | 44989
3 | 9:59.65 | 4:20.25 | 44990 | 64514
4 | 14:20.15 | 3:21.67 | 64515 | 79656
5 | 17:42.07 | 3:02.58 | 79657 | 93364
6 | 20:44.65 | 13:41.30 | 93365 | 154969


Track 1

Filename C:\EAC extraction\01 - I. Fete populaire de la semaine grasse - Le tour de passe-passe.wav

Pre-gap length 0:00:02.32

Peak level 89.1 %
Extraction speed 2.7 X
Track quality 100.0 %
Test CRC 0139B284
Copy CRC 0139B284
Accurately ripped (confidence 8) [D1BC7DE5] (AR v2)
Copy OK

Track 2

Filename C:\EAC extraction\02 - Danse russe.wav

Peak level 89.1 %
Extraction speed 2.8 X
Track quality 100.0 %
Test CRC F70662F4
Copy CRC F70662F4
Accurately ripped (confidence 8) [FFADD604] (AR v2)
Copy OK

Track 3

Filename C:\EAC extraction\03 - II. Chez Petrouchka.wav

Peak level 81.1 %
Extraction speed 3.1 X
Track quality 100.0 %
Test CRC 4E90C4D4
Copy CRC 4E90C4D4
Accurately ripped (confidence 8) [73DA77EB] (AR v2)
Copy OK

Track 4

Filename C:\EAC extraction\04 - III. Chez le maure - Danse de la ballerine -.wav

Peak level 60.9 %
Extraction speed 3.2 X
Track quality 100.0 %
Test CRC 343C0AF0
Copy CRC 343C0AF0
Accurately ripped (confidence 8) [BF6212C1] (AR v2)
Copy OK

Track 5

Filename C:\EAC extraction\05 - Valse. La ballerine et le maure.wav

Peak level 89.1 %
Extraction speed 3.3 X
Track quality 100.0 %
Test CRC AAF5FC9C
Copy CRC AAF5FC9C
Accurately ripped (confidence 8) [E409C904] (AR v2)
Copy OK

Track 6

Filename C:\EAC extraction\06 - IV. Fete populaire de la semaine grasse (Vers le soir).wav

Peak level 89.1 %
Extraction speed 4.1 X
Track quality 99.9 %
Test CRC 5C3BD8C8
Copy CRC 5C3BD8C8
Accurately ripped (confidence 8) [E0089B35] (AR v2)
Copy OK


All tracks accurately ripped

No errors occurred

End of status report

==== Log checksum E3901DAC987E737267F15B03A98227BFCF1AF631110DCF0EDD45A9AEFD9F609A ====


Stravinsky - Petrouchka (original 1911 version) - LSO, Abbado (1981) {Deutsche Grammophon 400 042-2}

Stravinsky - Petrouchka (original 1911 version) - LSO, Abbado (1981) {Deutsche Grammophon 400 042-2}



===