Subcategories

Stravinsky - L’Oiseau de Feu, Le Sacre du Printemps (performed by Tugan Sokhiev) [CD+DVD] (2012) {Naive}

Posted By: ruskaval
Stravinsky - L’Oiseau de Feu, Le Sacre du Printemps (performed by Tugan Sokhiev) [CD+DVD] (2012) {Naive}

Stravinsky - L’Oiseau de Feu, Le Sacre du Printemps (performed by Tugan Sokhiev) [CD+DVD] (2012) {Naive}
EAC rip (secure mode) | FLAC (tracks)+CUE+LOG -> 214 Mb | MP3 @320 -> 132 Mb
DVD5 -> 1.96 Gb | All Regions | NTSC 16:9 | LinearPCM, 2 ch | ~ 37m | ISO Image
Full Artwork @ 300 dpi (jpg) -> 35 Mb | 5% repair rar
© 2012 Naive | V 5192
Classical / Orchestral

The fifth recording of Tugan Sokhiev and Orchestre National du Capitole de Toulouse on naïve is dedicated to one of the major music works on the 20th century, Stravinsky’s Rite of Spring, which will turn 100 years in 2013. Also featuring the brilliant piece The Firebird and offering illustrations that enhance the special atmosphere of those works, the set includes a bonus DVD with a live performance of Rite of Spring by Tugan Sokhiev and Orchestre National du Capitole de Toulouse during the unforgettable concert that opened last season of the orchestra, considered one of the best French ensembles.

Tugan Sokhiev’s career is moving ahead fast. Besides his activity of Music Director at Orchestre National du Capitole de Toulouse, with whom he will tour Japan, Germany, Austria, Poland and China this season, he is now Music Director at Deutsches Symphonie Orchestra in Berlin and guest conductor of several prestigious orchestras all along the season in Europe and America.
It's a remarkable release for a remarkable occasion. May, 2013 is the centennial of the premier of Stravinsky's "Rite of Spring" in Paris. While the work no longer incites riots, it has become a repertoire standard, and one that can sound fresh and exotic even today.

Naive marks the event with this deluxe release. The hardbound 90-page book contains a DVD of Tugan Sokhiev conducting the Orchestre National du Capitole de Toulous in a live performance of the Rite. Also included is a CD with the same forces performing the "Rite of Spring" and Stravinsky's "The Firebird."

The multi-language booklet features essays about both works, and wonderful two-color illustrations by Sophie Chaussade. Yes, these recordings are also available for download, but get the book. The illustrations and the feel of this quality print edition are worth the investment.

Musically, Sokhiev and the orchestra perform admirably. The ensemble plays with energy and precision. The fast sections in the ballets are amazingly clean, and the articulation makes the music sparkle. The soloists are also first-rate, especially in the Rite of Spring.

The DVD is a 48kbps/16-bit recording, which sounds great, especially through a two-channel system. Intelligent editing keeps the visuals coordinated with the music. We see the soloists when they perform, and – more importantly – focus on relevant parts of the orchestra when the entire ensemble's playing.. Just as the conductor's gestures can draw the listener's attention to something that otherwise might be lost in the mix in a live performance, the cameras here do the same.

All in all, a nice commemorative package for an important milestone.

More INFO

Personnel:
Tugan Sokhiev and the Orchestre National du Capitole de Toulouse


Stravinsky - L’Oiseau de Feu, Le Sacre du Printemps (performed by Tugan Sokhiev) [CD+DVD] (2012) {Naive}

Stravinsky - L’Oiseau de Feu, Le Sacre du Printemps (performed by Tugan Sokhiev) [CD+DVD] (2012) {Naive}


tracklist:
CD
Stravinsky L'oiseau de feu


01. Introduction 3'13
02. L’oiseau de feu et sa danse 0'18
03. Variation de l’oiseau de feu 1'17
04. Ronde des princesses 5'15
05. Danse infernale du roi Kastchei 4'37
06. Berceuse 3'42
07. Final 3'27

Stravinsky Le sacre du printemps
Premier tableau : L'adoration de la terre

08. Introduction 3'33
09. Augures printaniers 3'06
10. Danses des adolescentes
11. Jeu de rapt 3'51
12. Rondes printanières 1'54
13. Jeu des cités rivales 0'41
14. Cortège du Sage 0'23
15. Danse de la terre 1'17

Deuxieme tableau : le sacrifice
16. Introduction 3'56
17. Cercles mystérieux des adolescentes 3'06
18. Glorification de l’élue 1'32
19. Évocation des ancêtres 0'54
20. Action rituelle des ancêtres 3'10
21. Danse sacrale 4'32

DVD
Le Sacre du Printemps (1913) [37:00]

Orchestre National du Capitole de Toulouse/Tugan Sokhiev
rec. September 2011 (CD); 17 September 2011 (DVD), La Halle aux Grains, Toulouse


Exact Audio Copy V1.0 beta 3 from 29. August 2011

EAC extraction logfile from 16. May 2013, 21:19

Stravinsky Igor / L'oiseau de feu - Le sacre du Printemps (Tugan Sokhiev)

Used drive : PLEXTOR DVDR PX-860A Adapter: 0 ID: 0

Read mode : Secure
Utilize accurate stream : Yes
Defeat audio cache : Yes
Make use of C2 pointers : No

Read offset correction : 96
Overread into Lead-In and Lead-Out : No
Fill up missing offset samples with silence : Yes
Delete leading and trailing silent blocks : No
Null samples used in CRC calculations : Yes
Used interface : Native Win32 interface for Win NT & 2000
Gap handling : Appended to previous track

Used output format : User Defined Encoder
Selected bitrate : 1024 kBit/s
Quality : High
Add ID3 tag : No
Command line compressor : C:\Program Files\Exact Audio Copy\Flac\flac.exe
Additional command line options : -8 -V -T "ARTIST=%artist%" -T "TITLE=%title%" -T "ALBUM=%albumtitle%" -T "DATE=%year%" -T "TRACKNUMBER=%tracknr%" -T "GENRE=%genre%" -T "PERFORMER=%albuminterpret%" -T "COMPOSER=%composer%" %haslyrics%–tag-from-file=LYRICS="%lyricsfile%"%haslyrics% -T "ALBUMARTIST=%albumartist%" -T "DISCNUMBER=%cdnumber%" -T "TOTALDISCS=%totalcds%" -T "TOTALTRACKS=%numtracks%" -T "COMMENT=EAC Secure Mode, Test & Copy, AccurateRip, FLAC -8" %source% -o %dest%


TOC of the extracted CD

Track | Start | Length | Start sector | End sector
––––––––––––––––––––––––––––-
1 | 0:00.00 | 3:12.61 | 0 | 14460
2 | 3:12.61 | 0:16.64 | 14461 | 15724
3 | 3:29.50 | 1:16.42 | 15725 | 21466
4 | 4:46.17 | 5:14.47 | 21467 | 45063
5 | 10:00.64 | 4:37.38 | 45064 | 65876
6 | 14:38.27 | 3:42.13 | 65877 | 82539
7 | 18:20.40 | 3:31.13 | 82540 | 98377
8 | 21:51.53 | 3:32.51 | 98378 | 114328
9 | 25:24.29 | 3:05.51 | 114329 | 128254
10 | 28:30.05 | 1:19.34 | 128255 | 134213
11 | 29:49.39 | 3:50.36 | 134214 | 151499
12 | 33:40.00 | 1:54.35 | 151500 | 160084
13 | 35:34.35 | 0:41.12 | 160085 | 163171
14 | 36:15.47 | 0:23.30 | 163172 | 164926
15 | 36:39.02 | 1:16.52 | 164927 | 170678
16 | 37:55.54 | 3:56.28 | 170679 | 188406
17 | 41:52.07 | 3:05.58 | 188407 | 202339
18 | 44:57.65 | 1:29.48 | 202340 | 209062
19 | 46:27.38 | 0:53.15 | 209063 | 213052
20 | 47:20.53 | 3:09.23 | 213053 | 227250
21 | 50:30.01 | 4:27.62 | 227251 | 247337


Track 1

Filename O:\DL\Stravinsky Igor - L'oiseau de feu - Le sacre du Printemps (Tugan Sokhiev) (2011) [FLAC]\01 - L'oiseau de feu - Introduction.wav

Pre-gap length 0:00:02.00

Peak level 17.6 %
Extraction speed 4.1 X
Track quality 100.0 %
Test CRC D1AF6EFB
Copy CRC D1AF6EFB
Track not present in AccurateRip database
Copy OK

Track 2

Filename O:\DL\Stravinsky Igor - L'oiseau de feu - Le sacre du Printemps (Tugan Sokhiev) (2011) [FLAC]\02 - L'oiseau de feu - L'oiseau de feu et sa danse.wav

Peak level 28.2 %
Extraction speed 1.6 X
Track quality 100.0 %
Test CRC C9D3B583
Copy CRC C9D3B583
Track not present in AccurateRip database
Copy OK

Track 3

Filename O:\DL\Stravinsky Igor - L'oiseau de feu - Le sacre du Printemps (Tugan Sokhiev) (2011) [FLAC]\03 - L'oiseau de feu - Variation de l'oiseau de feu.wav

Peak level 53.8 %
Extraction speed 3.5 X
Track quality 100.0 %
Test CRC 36D62F42
Copy CRC 36D62F42
Track not present in AccurateRip database
Copy OK

Track 4

Filename O:\DL\Stravinsky Igor - L'oiseau de feu - Le sacre du Printemps (Tugan Sokhiev) (2011) [FLAC]\04 - L'oiseau de feu - Ronde des princesses.wav

Peak level 32.3 %
Extraction speed 5.0 X
Track quality 100.0 %
Test CRC 9FF0A439
Copy CRC 9FF0A439
Track not present in AccurateRip database
Copy OK

Track 5

Filename O:\DL\Stravinsky Igor - L'oiseau de feu - Le sacre du Printemps (Tugan Sokhiev) (2011) [FLAC]\05 - L'oiseau de feu - Danse infernale du roi Kastchei.wav

Peak level 98.0 %
Extraction speed 5.5 X
Track quality 100.0 %
Test CRC 02BAB1FC
Copy CRC 02BAB1FC
Track not present in AccurateRip database
Copy OK

Track 6

Filename O:\DL\Stravinsky Igor - L'oiseau de feu - Le sacre du Printemps (Tugan Sokhiev) (2011) [FLAC]\06 - L'oiseau de feu - Berceuse.wav

Peak level 28.6 %
Extraction speed 5.7 X
Track quality 100.0 %
Test CRC 0C71D067
Copy CRC 0C71D067
Track not present in AccurateRip database
Copy OK

Track 7

Filename O:\DL\Stravinsky Igor - L'oiseau de feu - Le sacre du Printemps (Tugan Sokhiev) (2011) [FLAC]\07 - L'oiseau de feu - Final.wav

Peak level 98.8 %
Extraction speed 5.2 X
Track quality 99.9 %
Test CRC 3402793A
Copy CRC 3402793A
Track not present in AccurateRip database
Copy OK

Track 8

Filename O:\DL\Stravinsky Igor - L'oiseau de feu - Le sacre du Printemps (Tugan Sokhiev) (2011) [FLAC]\08 - Le sacre du printemps - 1er Tableau - Introduction.wav

Peak level 28.7 %
Extraction speed 6.3 X
Track quality 100.0 %
Test CRC 0D2C2BDB
Copy CRC 0D2C2BDB
Track not present in AccurateRip database
Copy OK

Track 9

Filename O:\DL\Stravinsky Igor - L'oiseau de feu - Le sacre du Printemps (Tugan Sokhiev) (2011) [FLAC]\09 - Le sacre du printemps - 1er Tableau - Augures printaniers.wav

Peak level 69.3 %
Extraction speed 6.3 X
Track quality 100.0 %
Test CRC 01B66F0F
Copy CRC 01B66F0F
Track not present in AccurateRip database
Copy OK

Track 10

Filename O:\DL\Stravinsky Igor - L'oiseau de feu - Le sacre du Printemps (Tugan Sokhiev) (2011) [FLAC]\10 - Le sacre du printemps - 1er Tableau - Danses des adolescentes.wav

Peak level 83.5 %
Extraction speed 5.3 X
Track quality 100.0 %
Test CRC 970DC10A
Copy CRC 970DC10A
Track not present in AccurateRip database
Copy OK

Track 11

Filename O:\DL\Stravinsky Igor - L'oiseau de feu - Le sacre du Printemps (Tugan Sokhiev) (2011) [FLAC]\11 - Le sacre du printemps - 1er Tableau - Jeu de rapt.wav

Peak level 82.1 %
Extraction speed 6.8 X
Track quality 100.0 %
Test CRC FDA43EA6
Copy CRC FDA43EA6
Track not present in AccurateRip database
Copy OK

Track 12

Filename O:\DL\Stravinsky Igor - L'oiseau de feu - Le sacre du Printemps (Tugan Sokhiev) (2011) [FLAC]\12 - Le sacre du printemps - 1er Tableau - Rondes printanieres.wav

Peak level 62.2 %
Extraction speed 6.1 X
Track quality 100.0 %
Test CRC 27DB1590
Copy CRC 27DB1590
Track not present in AccurateRip database
Copy OK

Track 13

Filename O:\DL\Stravinsky Igor - L'oiseau de feu - Le sacre du Printemps (Tugan Sokhiev) (2011) [FLAC]\13 - Le sacre du printemps - 1er Tableau - Jeu des cites rivales.wav

Peak level 72.4 %
Extraction speed 2.8 X
Track quality 99.7 %
Test CRC 59069625
Copy CRC 59069625
Track not present in AccurateRip database
Copy OK

Track 14

Filename O:\DL\Stravinsky Igor - L'oiseau de feu - Le sacre du Printemps (Tugan Sokhiev) (2011) [FLAC]\14 - Le sacre du printemps - 1er Tableau - Cortege du sage.wav

Peak level 4.2 %
Extraction speed 3.1 X
Track quality 100.0 %
Test CRC B3AA3892
Copy CRC B3AA3892
Track not present in AccurateRip database
Copy OK

Track 15

Filename O:\DL\Stravinsky Igor - L'oiseau de feu - Le sacre du Printemps (Tugan Sokhiev) (2011) [FLAC]\15 - Le sacre du printemps - 1er Tableau - Danse de la terre.wav

Peak level 98.8 %
Extraction speed 4.0 X
Track quality 99.8 %
Test CRC 200F96DB
Copy CRC 200F96DB
Track not present in AccurateRip database
Copy OK

Track 16

Filename O:\DL\Stravinsky Igor - L'oiseau de feu - Le sacre du Printemps (Tugan Sokhiev) (2011) [FLAC]\16 - Le sacre du printemps - 2eme Tableau - Introduction.wav

Peak level 21.5 %
Extraction speed 6.3 X
Track quality 99.9 %
Test CRC A0C182B4
Copy CRC A0C182B4
Track not present in AccurateRip database
Copy OK

Track 17

Filename O:\DL\Stravinsky Igor - L'oiseau de feu - Le sacre du Printemps (Tugan Sokhiev) (2011) [FLAC]\17 - Le sacre du printemps - 2eme Tableau - Cercle mysterieux des adolescentes.wav

Peak level 84.4 %
Extraction speed 6.9 X
Track quality 100.0 %
Test CRC C5209146
Copy CRC C5209146
Track not present in AccurateRip database
Copy OK

Track 18

Filename O:\DL\Stravinsky Igor - L'oiseau de feu - Le sacre du Printemps (Tugan Sokhiev) (2011) [FLAC]\18 - Le sacre du printemps - 2eme Tableau - Glorification de l'elue.wav

Peak level 74.2 %
Extraction speed 1.2 X
Track quality 99.8 %
Test CRC 0CE37E3B
Copy CRC 0CE37E3B
Track not present in AccurateRip database
Copy OK

Track 19

Filename O:\DL\Stravinsky Igor - L'oiseau de feu - Le sacre du Printemps (Tugan Sokhiev) (2011) [FLAC]\19 - Le sacre du printemps - 2eme Tableau - Evocation des ancetres.wav

Peak level 90.6 %
Extraction speed 1.3 X
Track quality 100.0 %
Test CRC 8A8E103C
Copy CRC 8A8E103C
Track not present in AccurateRip database
Copy OK

Track 20

Filename O:\DL\Stravinsky Igor - L'oiseau de feu - Le sacre du Printemps (Tugan Sokhiev) (2011) [FLAC]\20 - Le sacre du printemps - 2eme Tableau - Action rituelle des ancetres.wav

Peak level 72.8 %
Extraction speed 1.8 X
Track quality 100.0 %
Test CRC F3A5D62C
Copy CRC F3A5D62C
Track not present in AccurateRip database
Copy OK

Track 21

Filename O:\DL\Stravinsky Igor - L'oiseau de feu - Le sacre du Printemps (Tugan Sokhiev) (2011) [FLAC]\21 - Le sacre du printemps - 2eme Tableau - Danse sacrale.wav

Peak level 81.2 %
Extraction speed 2.0 X
Track quality 100.0 %
Test CRC 1B667440
Copy CRC 1B667440
Track not present in AccurateRip database
Copy OK


None of the tracks are present in the AccurateRip database

No errors occurred

End of status report

–– CUETools DB Plugin V2.1.3

[CTDB TOCID: 4A4gPxlWm.eJi8Cu4f3EQ1fVQFE-] found, Submit result: 4A4gPxlWm.eJi8Cu4f3EQ1fVQFE- has been confirmed
[ab23fee6] (1/1) Accurately ripped


==== Log checksum 64D6EF1C7C49EF888BFAE05C94AC219B28967B7F0095E18083B02E3C186DFCE4 ====


Stravinsky - L’Oiseau de Feu, Le Sacre du Printemps (performed by Tugan Sokhiev) [CD+DVD] (2012) {Naive}

Stravinsky - L’Oiseau de Feu, Le Sacre du Printemps (performed by Tugan Sokhiev) [CD+DVD] (2012) {Naive}

Stravinsky - L’Oiseau de Feu, Le Sacre du Printemps (performed by Tugan Sokhiev) [CD+DVD] (2012) {Naive}

Stravinsky - L’Oiseau de Feu, Le Sacre du Printemps (performed by Tugan Sokhiev) [CD+DVD] (2012) {Naive}

Stravinsky - L’Oiseau de Feu, Le Sacre du Printemps (performed by Tugan Sokhiev) [CD+DVD] (2012) {Naive}

Stravinsky - L’Oiseau de Feu, Le Sacre du Printemps (performed by Tugan Sokhiev) [CD+DVD] (2012) {Naive}


All thanks goes to the original releaser!