Thomas Morgan & Joey Baron Jakob Bro - Streams (2016)

Posted By: mark70
Thomas Morgan & Joey Baron Jakob Bro - Streams (2016)

Thomas Morgan & Joey Baron Jakob Bro - Streams (2016)
EAC Rip | FLAC (tracks) + Cue + Log | Artwork | 48:31 min | 336 MB
Genre: Jazz | Label: ECM #2499

On his second leader album for ECM - following on from the prizewinning Gefion - Danish guitarist Jakob Bro continues to refine his trio project, with its emphases on melody, sound, space, layered textures and interaction. The rapport between Bro and Thomas Morgan (Bro calls him "my musical soul mate") has become something extraordinary, and often guitarist and bassist develop improvisational ideas in parallel. There's an historical aptness, too, in the choice of Joey Baron as the band's new drummer, for Bro first encountered Morgan when the bassist was playing in Baron's band a decade ago… On Streams Joey Baron dives into the music's detail with obvious pleasure. This recording features five new Bro pieces: "Opal", "Full Moon Europa", "Shell Pink", "Sisimiut" and "Heroines" (heard in both a trio version and a particularly lovely solo version). Completing the album's repertoire is the freely improvised "PM Dream", dedicated to the late Paul Motian. Jakob's approach to melody acknowledges the influence of Motian, and both Bro and Morgan played in the late drummer's ensembles. Recorded at Studios La Buissonne in the South of France in November 2015 and produced by Manfred Eicher, Streams is issued on the eve of a major tour by the Bro-Morgan-Baron trio with dates in Europe and South Korea.

Thomas Morgan & Joey Baron Jakob Bro - Streams (2016)


Tracklist:

01. Opal 04:40
02. Heroines 05:35
03. PM Dream 09:37
04. Full Moon Europa 10:19
05. Shell Pink 08:17
06. Heroines (var.) 02:33
07. Sisimiut 07:30

Exact Audio Copy V1.1 from 23. June 2015

EAC extraction logfile from 4. October 2016, 21:33

Jakob Bro, Thomas Morgan, Joey Baron / Streams [ECM 2499]

Used drive : PLEXTOR DVDR PX-L890SA Adapter: 1 ID: 1

Read mode : Secure
Utilize accurate stream : Yes
Defeat audio cache : Yes
Make use of C2 pointers : No

Read offset correction : 6
Overread into Lead-In and Lead-Out : No
Fill up missing offset samples with silence : Yes
Delete leading and trailing silent blocks : No
Null samples used in CRC calculations : Yes
Used interface : Native Win32 interface for Win NT & 2000
Gap handling : Appended to previous track

Used output format : User Defined Encoder
Selected bitrate : 128 kBit/s
Quality : High
Add ID3 tag : No
Command line compressor : C:\Program Files (x86)\Exact Audio Copy\FLAC\FLAC.EXE
Additional command line options : -8 -V -T "ARTIST=%artist%" -T "TITLE=%title%" -T "ALBUM=%albumtitle%" -T "DATE=%year%" -T "TRACKNUMBER=%tracknr%" -T "TOTALTRACKS=%numtracks%" -T "GENRE=%genre%" -T "ALBUMARTIST=%albumartist%" -T "ALBUM ARTIST=%albumartist%" -T "COMMENT=EAC Secure Mode, Test & Copy, AccurateRip, FLAC -8" %source%


TOC of the extracted CD

Track | Start | Length | Start sector | End sector
––––––––––––––––––––––––––––-
1 | 0:00.00 | 4:40.08 | 0 | 21007
2 | 4:40.08 | 5:35.58 | 21008 | 46190
3 | 10:15.66 | 9:37.67 | 46191 | 89532
4 | 19:53.58 | 10:19.25 | 89533 | 135982
5 | 30:13.08 | 8:17.56 | 135983 | 173313
6 | 38:30.64 | 2:33.46 | 173314 | 184834
7 | 41:04.35 | 7:30.40 | 184835 | 218624


Track 1

Filename D:\Flac Rips\01 - Opal.wav

Pre-gap length 0:00:02.00

Peak level 56.8 %
Extraction speed 3.5 X
Track quality 100.0 %
Test CRC 900E01CD
Copy CRC 900E01CD
Track not present in AccurateRip database
Copy OK

Track 2

Filename D:\Flac Rips\02 - Heroines.wav

Peak level 78.7 %
Extraction speed 4.1 X
Track quality 100.0 %
Test CRC E2D4597B
Copy CRC E2D4597B
Track not present in AccurateRip database
Copy OK

Track 3

Filename D:\Flac Rips\03 - PM Dream.wav

Peak level 94.4 %
Extraction speed 4.9 X
Track quality 100.0 %
Test CRC 19FDAEFB
Copy CRC 19FDAEFB
Track not present in AccurateRip database
Copy OK

Track 4

Filename D:\Flac Rips\04 - Full Moon Europa.wav

Peak level 96.3 %
Extraction speed 5.6 X
Track quality 100.0 %
Test CRC 6796623A
Copy CRC 6796623A
Track not present in AccurateRip database
Copy OK

Track 5

Filename D:\Flac Rips\05 - Shell Pink.wav

Peak level 87.0 %
Extraction speed 6.1 X
Track quality 100.0 %
Test CRC 7A19AD39
Copy CRC 7A19AD39
Track not present in AccurateRip database
Copy OK

Track 6

Filename D:\Flac Rips\06 - Heroines (solo).wav

Peak level 47.4 %
Extraction speed 5.5 X
Track quality 100.0 %
Test CRC 1C79A80B
Copy CRC 1C79A80B
Track not present in AccurateRip database
Copy OK

Track 7

Filename D:\Flac Rips\07 - Sisimiut.wav

Peak level 93.6 %
Extraction speed 5.8 X
Track quality 99.9 %
Test CRC 38CC51CA
Copy CRC 38CC51CA
Track not present in AccurateRip database
Copy OK


None of the tracks are present in the AccurateRip database

No errors occurred

End of status report

–– CUETools DB Plugin V2.1.6

[CTDB TOCID: unkdH7YO3nIjG5JIJ9d13BYrVjU-] found
Submit result: unkdH7YO3nIjG5JIJ9d13BYrVjU- has been confirmed
Track | CTDB Status
1 | (3/3) Accurately ripped
2 | (3/3) Accurately ripped
3 | (3/3) Accurately ripped
4 | (3/3) Accurately ripped
5 | (3/3) Accurately ripped
6 | (3/3) Accurately ripped
7 | (3/3) Accurately ripped


==== Log checksum 123C81E83B2D85D19D0F96041E83CE96C3D30AF04F09E5A87B41532986D3EB00 ====


Thomas Morgan & Joey Baron Jakob Bro - Streams (2016)