Subcategories

VA – Streets Of Fire (OST) (1984)

Posted By: janwal46
VA – Streets Of Fire (OST) (1984)

VA – Streets Of Fire (OST) (1984)

VA – Streets Of Fire (OST) (1984)
MCA Records | 1984 | Soundtrack Rock | EAC RIP | FLAC+CUE+LOG+HQ-Covers (400Dpi) | 287Mb+17Mb

There is not a bad song on here and the variety makes this a winner. It's just got a rock 'n roll feel to it, the kind of electricity that rock 'n roll has when you first discover it as a youth. It is alive, adrenaline pumping and fills you with possibility.
Jim Steinman (the melodramatic writer behind Meat Loaf's Bat out of Hell) is the author of many of the tracks here, and they have his typical rock & roll Sturm und Drang, especially when the backup group consists of members of Bruce Springsteen's E Street Band. Also on hand are The Blasters, Maria McKee, and Ry Cooder. The album's hit single turned out to be Dan Hartman's "I Can Dream about You."

Tracklist:

01. Fire Inc. - Nowhere Fast
02. Marilyn Martin - Sorcerer
03. The Fixx - Deeper And Deeper
04. Grag Philinganes - Countdown To Love
05. The Blasters - One Bad Stud
06. Fire Inc. - Tonight Is What It Means To Be Young
07. Maria McKee - Never Be You
08. Dan Hartman - I Can Dream About You
09. Ry Cooder - Hold That Snake
10. The Blasters - Blue Shadows

Sound Quality: 8

Exact Audio Copy V0.99 prebeta 5 from 4. May 2009

EAC extraction logfile from 27. December 2009, 20:52

Various / Streets Of Fire - Soundtrack

Used drive : _NEC DVD_RW ND-3520A Adapter: 1 ID: 1

Read mode : Secure
Utilize accurate stream : Yes
Defeat audio cache : Yes
Make use of C2 pointers : No

Read offset correction : 48
Overread into Lead-In and Lead-Out : No
Fill up missing offset samples with silence : Yes
Delete leading and trailing silent blocks : No
Null samples used in CRC calculations : No
Used interface : Native Win32 interface for Win NT & 2000

Used output format : Internal WAV Routines
Sample format : 44.100 Hz; 16 Bit; Stereo


TOC of the extracted CD

Track | Start | Length | Start sector | End sector
––––––––––––––––––––––––––––-
1 | 0:00.00 | 6:04.00 | 0 | 27299
2 | 6:04.00 | 5:11.10 | 27300 | 50634
3 | 11:15.10 | 3:48.45 | 50635 | 67779
4 | 15:03.55 | 2:59.12 | 67780 | 81216
5 | 18:02.67 | 2:31.40 | 81217 | 92581
6 | 20:34.32 | 6:56.20 | 92582 | 123801
7 | 27:30.52 | 4:06.63 | 123802 | 142314
8 | 31:37.40 | 4:12.32 | 142315 | 161246
9 | 35:49.72 | 2:40.10 | 161247 | 173256
10 | 38:30.07 | 3:15.25 | 173257 | 187906


Range status and errors

Selected range

Filename F:\AVAXHOME\VA - Streets Of Fire - Soundtrack (1984)\VA - Streets Of Fire - Soundtrack.wav

Peak Level 100.0 %
Range Quality 99.9 %
Copy CRC 3101E390
Copy OK

No errors occurred


AccurateRip summary

Track 1 accurately ripped (confidence 14) [AFDD7CE1]
Track 2 accurately ripped (confidence 14) [0B66C4E8]
Track 3 accurately ripped (confidence 14) [85829AE9]
Track 4 accurately ripped (confidence 14) [D349734D]
Track 5 accurately ripped (confidence 14) [4C737E72]
Track 6 accurately ripped (confidence 14) [76FB5265]
Track 7 accurately ripped (confidence 14) [03F62D75]
Track 8 accurately ripped (confidence 14) [9730739A]
Track 9 accurately ripped (confidence 14) [266544FF]
Track 10 accurately ripped (confidence 13) [9DF102E7]

All tracks accurately ripped

End of status report

RIPPED BY JANWAL46

RS Links:



In case you encounter dead links in any of my posts, please send me a private message !!!!


Password: janwal46

Say thanks, but please, no mirrors and/or direct links in your comments !!!!