Subcategories

Suzi Quatro - Rock Hard (1980) [Remastered Reissue 2012] RESTORED

Posted By: Rehabilly
Suzi Quatro - Rock Hard (1980) [Remastered Reissue 2012] RESTORED

Suzi Quatro - Rock Hard (1980) [Remastered 2012]
EAC | FLAC+CUE+LOG or MP3 CBR 320 | 38:35 min | 282 or 89 MB

First time on CD in its original sleeve, this was Glam Rock Goddess Suzi Quatro's seventh studio album, originally released in 1980 and which was certified Platinum in Australia. Includes the singles 'Rock Hard' (from the movie Times Square), 'Glad All Over' and 'Lipstick'. Detailed booklet includes liner notes by Phil Hendriks and pictures of all relevant singles sleeves. Produced by Mike Chapman, the man behind Suzi's string of hits in the '70s as well as the likes of Sweet, Mud and Smokey.

Although glam had long slipped off the radar by 1981, that year found Suzi Quatro releasing one of her finest albums. With Nicky Chinn and Mike Chapman (the producers behind her biggest hits) at the controls, Quatro and her band craft a series of songs that blend the hard rock power that fueled her glam rock era hits with a new soundscape that tarts up the songs with some ear attracting new wave hooks. The tone is set by the title track, which starts the album with a blast thanks to its effective combination chugging guitar riffs, a stomping beat, and a shout-along chorus that praises the song's tough female heroine. Other hard rocking highlights include "Glad All Over", a cover of the Dave Clark Five classic that uses a backbeat reminiscent of a squad of rolling tanks on its chorus, and "Lipstick", a kiss-off to a cheating lover that pits power chords against bubblegum-styled handclaps to create a beguiling fusion of pop hooks and rock & roll muscle. Even the quieter numbers manage to rock in their own way: a good example is "Love Is Ready", a mid-tempo invitation to romance that swings with authority over some soaring guitar riffs. Although it lacks the kind of single that would have put it over the top commercially, Rock Hard is so consistent and likable that it is tough to argue with. In short, Rock Hard is a necessity and a solid listen for anyone interested in what female-oriented rock was like before the advent of grrl rockers like L7 and Hole.

~ Donald A. Guarisco, all media guide
Tracklist:

01. Rock Hard
02. Glad All Over
03. Love Is Ready
04. State Of Mind
05. Woman Cry
06. Lipstick
07. Hard Headed
08. Ego In The Night
09. Lonely Is The Hardest
10. Lay Me Down
11. Wish Upon Me

Exact Audio Copy V1.0 beta 1 from 15. November 2010

EAC extraction logfile from 23. May 2012, 22:50

Suzi Quatro / Rock Hard (Remastered 2012)

Used drive : PIONEER DVD-RW DVR-219L Adapter: 9 ID: 0

Read mode : Secure
Utilize accurate stream : Yes
Defeat audio cache : Yes
Make use of C2 pointers : No

Read offset correction : 6
Overread into Lead-In and Lead-Out : No
Fill up missing offset samples with silence : Yes
Delete leading and trailing silent blocks : No
Null samples used in CRC calculations : Yes
Used interface : Installed external ASPI interface

Used output format : Internal WAV Routines
Sample format : 44.100 Hz; 16 Bit; Stereo


TOC of the extracted CD

Track | Start | Length | Start sector | End sector
––––––––––––––––––––––––––––-
1 | 0:00.00 | 3:20.70 | 0 | 15069
2 | 3:20.70 | 2:50.29 | 15070 | 27848
3 | 6:11.24 | 3:31.74 | 27849 | 43747
4 | 9:43.23 | 3:02.33 | 43748 | 57430
5 | 12:45.56 | 3:36.69 | 57431 | 73699
6 | 16:22.50 | 4:10.57 | 73700 | 92506
7 | 20:33.32 | 4:02.26 | 92507 | 110682
8 | 24:35.58 | 3:37.42 | 110683 | 126999
9 | 28:13.25 | 3:48.36 | 127000 | 144135
10 | 32:01.61 | 3:35.02 | 144136 | 160262
11 | 35:36.63 | 2:58.17 | 160263 | 173629


Range status and errors

Selected range

Filename C:\_www.AvaxHome.ru\SUZI QUATRO\1980- Rock Hard [2012 Remaster]\Suzi Quatro - Rock Hard (GLAMCD-126).wav

Peak level 97.7 %
Extraction speed 0.5 X
Range quality 100.0 %
Test CRC DCAD7201
Copy CRC DCAD7201
Copy OK

No errors occurred


AccurateRip summary

Track 1 not present in database
Track 2 not present in database
Track 3 not present in database
Track 4 not present in database
Track 5 not present in database
Track 6 not present in database
Track 7 not present in database
Track 8 not present in database
Track 9 not present in database
Track 10 not present in database
Track 11 not present in database

None of the tracks are present in the AccurateRip database

End of status report

==== Log checksum 0CB66FC92B12AFCBDF26DD17993CAB1C073D855A30D826DBFFE450D57A3F6D04 ====


Original Album Produced by Mike Chapman. Engineered by Pete Coleman.
Recorded at Western Studios, Hollywood, CA. between June 18th and July 3rd 1980.

• Suzi Quatro - lead vocals, bass, organ and backing vocals
• Len Tuckey - lead guitar and backing vocals
• Jamie Crompton - guitar
• Dave Neal - drums

Original Release Date: October 24, 1980
Remastered CD Re-Released: April 16, 2012
Label: 7T's Records, U.K.
Catalog No.: GLAM CD 126

The Right choice*
https://www.bigfile.to/file/QHpK7dr4ydZS/SQ8012RH984F.rar

all covers.png (136 MB)
https://www.bigfile.to/file/FYezquMq46sG/SQ8012RH547C.rar

lossy.mp3
https://www.bigfile.to/file/ADN2RZztStuR/SQ8012RH20G.rar


* Original CD -> EAC image, embedded cuesheet & more, foobar2000 ready, etc.
(all CUEs, LOGs and other technical info includes in the internal "CD_Support" archive)