Subcategories

Systems In Blue - Melange Bleu (The 3rd Album) (2017)

Posted By: delpotro
Systems In Blue - Melange Bleu (The 3rd Album) (2017)

Systems In Blue - Melange Bleu (The 3rd Album) (2017)
EAC Rip | FLAC (image+log+.cue) - 539 Mb | Scans - 108 Mb | 01:11:29
EuroDisco | Label: Hargent New Media

The long-awaited album of the classics of European disco. In the best traditions of the 80s.

Systems in Blue (SIB) is a German pop band, composed of the members Rolf Köhler, Michael Scholz, and Detlef Wiedeke. After Rolf Köhler's death, the singer Olaf Senkbeil was invited to join them. The original band members started in the beginning of the 1960s, working in different bands during 1960s and 1970s, Rolf Köhler worked for several different artists such as Blonker, Uriah Heep, Blind Guardian, Helloween, Grave Digger, Gamma Ray, Iron Savior, Savage Circus, Tokyo, Mephistopheles, and Kin Ping Meh (featuring Geff Harrison) among others. They were part of the choruses of the Dieter Bohlen produced Modern Talking in 1984-1987 and 1998-2000 and Blue System in 1987-1997 with Rolf Köhler as the refrain singer.
Tracklist:
Part 1. - The Blue Part
01.Back In Blue (4:16)
02.There's No Heart (3:56)
03.Lady Ocean (3:45)
04.Take It Like A Man (4:55)
05.All That I Need (4:45)
06.If You Go (4:27)
07.It's Ok (4:12)
08.Ninty Five (4:55)
Part 2. - The Party Part
09.She's A Gambler (3:42)
10.Only You Can Brake My Heart (3:58)
11.Gimme Gimme (Your Sweet Love) (3:33)
Bonus Tracks
12.Go Systems Go (Maxi Version) (5:49)
13.Children Of The Night (Itamar Moraz Pure 80's Long MS Project Mix) (6:59)
14.Only You Can Brake My Heart (Extended Mix) (6:46)
15.Gimme Gimme (Your Sweet Love) (Extended Mix) (5:32)

Exact Audio Copy V1.3 from 2. September 2016

Отчёт EAC об извлечении, выполненном 17. февраля 2018, 23:28

Systems In Blue / Melange Bleu (The 3rd Album)

Дисковод: ASUS DRW-2014S1T Adapter: 1 ID: 0

Режим чтения : Достоверность
Использование точного потока : Да
Отключение кэша аудио : Да
Использование указателей C2 : Нет

Коррекция смещения при чтении : 6
Способность читать области Lead-in и Lead-out : Нет
Заполнение пропущенных сэмплов тишиной : Да
Удаление блоков с тишиной в начале и конце : Нет
При вычислениях CRC использовались нулевые сэмплы : Да
Интерфейс : Встроенный Win32-интерфейс для Win NT/2000

Выходной формат : Внутренние WAV-операции
Формат сэмплов : 44.100 Гц; 16 бит; стерео


TOC извлечённого CD

Трек | Старт | Длительность | Начальный сектор | Конечный сектор
––––––––––––––––––––––––––––––––––-
1 | 0:00.00 | 4:15.70 | 0 | 19194
2 | 4:15.70 | 3:56.01 | 19195 | 36895
3 | 8:11.71 | 3:44.67 | 36896 | 53762
4 | 11:56.63 | 4:54.38 | 53763 | 75850
5 | 16:51.26 | 4:45.06 | 75851 | 97231
6 | 21:36.32 | 4:26.70 | 97232 | 117251
7 | 26:03.27 | 4:12.31 | 117252 | 136182
8 | 30:15.58 | 4:55.07 | 136183 | 158314
9 | 35:10.65 | 3:42.12 | 158315 | 174976
10 | 38:53.02 | 3:58.14 | 174977 | 192840
11 | 42:51.16 | 3:32.38 | 192841 | 208778
12 | 46:23.54 | 5:49.28 | 208779 | 234981
13 | 52:13.07 | 6:58.39 | 234982 | 266370
14 | 59:11.46 | 6:46.00 | 266371 | 296820
15 | 65:57.46 | 5:31.42 | 296821 | 321687


Характеристики диапазона извлечения и сообщения об ошибках

Выбранный диапазон

Имя файла Z:\Temp\Systems In Blue - Melange Bleu (The 3rd Album).wav

Пиковый уровень 100.0 %
Скорость извлечения 9.4 X
Качество диапазона 100.0 %
CRC теста AC74D056
CRC копии AC74D056
Копирование… OK

Ошибок не произошло


AccurateRip: сводка

Трек 1 отсутствует в базе данных
Трек 2 отсутствует в базе данных
Трек 3 отсутствует в базе данных
Трек 4 отсутствует в базе данных
Трек 5 отсутствует в базе данных
Трек 6 отсутствует в базе данных
Трек 7 отсутствует в базе данных
Трек 8 отсутствует в базе данных
Трек 9 отсутствует в базе данных
Трек 10 отсутствует в базе данных
Трек 11 отсутствует в базе данных
Трек 12 отсутствует в базе данных
Трек 13 отсутствует в базе данных
Трек 14 отсутствует в базе данных
Трек 15 отсутствует в базе данных

Ни одного трека нет в базе AccurateRip

Конец отчёта

–– CUETools DB Plugin V2.1.6

[CTDB TOCID: YFOSCt5Bi0BIQaNWQHibjG1wQPQ-] found
Submit result: already submitted
Track | CTDB Status
1 | (9/9) Accurately ripped
2 | (9/9) Accurately ripped
3 | (9/9) Accurately ripped
4 | (9/9) Accurately ripped
5 | (9/9) Accurately ripped
6 | (9/9) Accurately ripped
7 | (9/9) Accurately ripped
8 | (9/9) Accurately ripped
9 | (9/9) Accurately ripped
10 | (9/9) Accurately ripped
11 | (9/9) Accurately ripped
12 | (9/9) Accurately ripped
13 | (9/9) Accurately ripped
14 | (9/9) Accurately ripped
15 | (9/9) Accurately ripped


==== Контрольная сумма отчёта 119713B8CA792A504C952E6963F007304E450773C9F744E5C1DFBA9468E18798 ====

Thanks to the Original ripper Stanics !