Subcategories
Tags
Language
Tags

Tangerine Dream - Rubycon (Expanded Edition, Japanese SHM-CD) (1975/2019)

Posted By: delpotro
Tangerine Dream - Rubycon (Expanded Edition, Japanese SHM-CD) (1975/2019)

Tangerine Dream - Rubycon (Expanded Edition, Japanese SHM-CD) (1975/2019)
XLD Rip | FLAC (tracks+log+.cue) - 556 Mb | MP3 CBR 320 kbps - 297 Mb | 02:04:49
Progressive Electronic, Ambient, Berlin School | Label: Universal Music, Virgin Records

Rubycon is the sixth major release and sixth studio album by German electronic music group Tangerine Dream. It was released in 1975. It is widely regarded as one of their best albums. Rubycon further develops the Berlin School sequencer-based sound they ushered in with the title track from Phaedra. Although not quite matching the sales figures for Phaedra, Rubycon reached number 10 in a 14-week run, their highest-charting album in the UK.
Tracklist:
Disc 1 (50:03)
1. Rubycon: Part 1 (17:17)
2. Rubycon: Part 2 (17:41)
3. Rubycon (Extended Introduction) (15:05)

Disc 2 (01:14:45)
1. Overture (11:02)
2. Act 1 (16:45)
3. Act 2: Battle (10:10)
4. Act 2: Baroque (08:56)
5. Act 2: Zeus (05:43)
6. Act 3 (22:09)

X Lossless Decoder version 20210101 (153.1)

XLD extraction logfile from 2021-05-07 19:59:23 -0400

Tangerine Dream / Rubycon

Used drive : HL-DT-ST DVDRW GX40N (revision RQ00)
Media type : Pressed CD

Ripper mode : XLD Secure Ripper
Disable audio cache : OK for the drive with a cache less than 1375KiB
Make use of C2 pointers : NO
Read offset correction : 6
Max retry count : 100
Gap status : Analyzed, Appended (except HTOA)

TOC of the extracted CD
Track | Start | Length | Start sector | End sector
––––––––––––––––––––––––––––-
1 | 00:00:00 | 17:17:33 | 0 | 77807
2 | 17:17:33 | 17:41:29 | 77808 | 157411
3 | 34:58:62 | 15:04:55 | 157412 | 225266

List of alternate offset correction values
# | Absolute | Relative | Confidence
–––––––––––––––––––––
1 | -6 | -12 | 63

AccurateRip Summary (DiscID: 000706c7-00175459-120bbb03)
Track 01 : OK (v2, confidence 15/78)
Track 02 : OK (v2, confidence 15/77)
Track 03 : OK (v2, confidence 15/76)
->All tracks accurately ripped.

All Tracks
Album gain : -1.95 dB
Peak : 0.982910
Statistics
Read error : 0
Jitter error (maybe fixed) : 0
Retry sector count : 0
Damaged sector count : 0

Track 01
Filename : /Users/theowner/Downloads/Tangerine Dream - Rubycon (1975) [FLAC]/01 Rubycon - Part 1.flac
Pre-gap length : 00:02:00

Track gain : -2.56 dB
Peak : 0.982910
CRC32 hash (test run) : 95EADAF2
CRC32 hash : 95EADAF2
CRC32 hash (skip zero) : BB1E6BE2
AccurateRip v1 signature : AE68E1DA
AccurateRip v2 signature : C8EAD881
->Accurately ripped (v2, confidence 15/78)
Statistics
Read error : 0
Jitter error (maybe fixed) : 0
Retry sector count : 0
Damaged sector count : 0

Track 02
Filename : /Users/theowner/Downloads/Tangerine Dream - Rubycon (1975) [FLAC]/02 Rubycon - Part 2.flac
Pre-gap length : 00:02:68

Track gain : -2.15 dB
Peak : 0.982910
CRC32 hash (test run) : F739A900
CRC32 hash : F739A900
CRC32 hash (skip zero) : 5588A0A8
AccurateRip v1 signature : 01909BE1
AccurateRip v2 signature : EC8F23F5
->Accurately ripped (v2, confidence 15/77)
Statistics
Read error : 0
Jitter error (maybe fixed) : 0
Retry sector count : 0
Damaged sector count : 0

Track 03
Filename : /Users/theowner/Downloads/Tangerine Dream - Rubycon (1975) [FLAC]/03 Rubycon (Extended intro).flac
Pre-gap length : 00:05:41

Track gain : -0.50 dB
Peak : 0.957428
CRC32 hash (test run) : A71F598F
CRC32 hash : A71F598F
CRC32 hash (skip zero) : A02A060B
AccurateRip v1 signature : F118B967
AccurateRip v2 signature : 03260941
->Accurately ripped (v2, confidence 15/76)
Statistics
Read error : 0
Jitter error (maybe fixed) : 0
Retry sector count : 0
Damaged sector count : 0

No errors occurred

End of status report

––-BEGIN XLD SIGNATURE––-
GsZYdPPdNazv8YWHy4JiBU7H1uiCu.rj9mkMcSqEAcOfT5AfkwAE_nbrherZs1NI6_cl1n8DpyBJzJUdf5L9X6cXJDr3EUngUicQ5im
––-END XLD SIGNATURE––-
X Lossless Decoder version 20210101 (153.1)

XLD extraction logfile from 2021-05-07 21:54:48 -0400

Tangerine Dream / Rubycon Expanded - Oedipus Tyrannus

Used drive : HL-DT-ST DVDRW GX40N (revision RQ00)
Media type : Pressed CD

Ripper mode : XLD Secure Ripper
Disable audio cache : OK for the drive with a cache less than 1375KiB
Make use of C2 pointers : NO
Read offset correction : 6
Max retry count : 100
Gap status : Analyzed, Appended (except HTOA)

TOC of the extracted CD
Track | Start | Length | Start sector | End sector
––––––––––––––––––––––––––––-
1 | 00:00:00 | 11:02:20 | 0 | 49669
2 | 11:02:20 | 16:45:00 | 49670 | 125044
3 | 27:47:20 | 10:10:25 | 125045 | 170819
4 | 37:57:45 | 08:55:45 | 170820 | 210989
5 | 46:53:15 | 05:43:19 | 210990 | 236733
6 | 52:36:34 | 22:09:10 | 236734 | 336418

List of alternate offset correction values
# | Absolute | Relative | Confidence
–––––––––––––––––––––
1 | -6 | -12 | 61

AccurateRip Summary (DiscID: 00113cce-005b5ecb-5d118506)
Track 01 : OK (v2, confidence 61/61, with different offset)
Track 02 : OK (v2, confidence 61/61, with different offset)
Track 03 : OK (v2, confidence 61/61, with different offset)
Track 04 : OK (v2, confidence 60/60, with different offset)
Track 05 : OK (v2, confidence 61/61, with different offset)
Track 06 : OK (v2, confidence 54/54, with different offset)
->All tracks accurately ripped.

All Tracks
Album gain : -1.98 dB
Peak : 0.993683
Statistics
Read error : 0
Jitter error (maybe fixed) : 0
Retry sector count : 0
Damaged sector count : 0

Track 01
Filename : /Users/theowner/Downloads/Tangerine Dream - Rubycon Expanded - Oedipus Tyrannus (2019) [FLAC]/01 Overture.flac
Pre-gap length : 00:02:00

Track gain : -1.28 dB
Peak : 0.993683
CRC32 hash (test run) : E565B3F5
CRC32 hash : E565B3F5
CRC32 hash (skip zero) : 7A64C55E
AccurateRip v1 signature : 00B21454
AccurateRip v2 signature : 37B6E9D4 (1A93EB1D w/correction)
->Accurately ripped with different offset (v2, confidence 61/61, offset -12)
Statistics
Read error : 0
Jitter error (maybe fixed) : 0
Retry sector count : 0
Damaged sector count : 0

Track 02
Filename : /Users/theowner/Downloads/Tangerine Dream - Rubycon Expanded - Oedipus Tyrannus (2019) [FLAC]/02 Act 1.flac
Pre-gap length : 00:02:11

Track gain : 0.19 dB
Peak : 0.890717
CRC32 hash (test run) : F38BF7B4
CRC32 hash : F38BF7B4
CRC32 hash (skip zero) : 762F862F
AccurateRip v1 signature : 5B689058
AccurateRip v2 signature : 7DDD4091 (5420F357 w/correction)
->Accurately ripped with different offset (v2, confidence 61/61, offset -12)
Statistics
Read error : 0
Jitter error (maybe fixed) : 0
Retry sector count : 0
Damaged sector count : 0

Track 03
Filename : /Users/theowner/Downloads/Tangerine Dream - Rubycon Expanded - Oedipus Tyrannus (2019) [FLAC]/03 Act 2 - Battle.flac
Pre-gap length : 00:02:07

Track gain : -4.69 dB
Peak : 0.985687
CRC32 hash (test run) : 106D4FAC
CRC32 hash : 106D4FAC
CRC32 hash (skip zero) : FDE3FCC9
AccurateRip v1 signature : 16B311A7
AccurateRip v2 signature : 7B28C4AD (8C6CE68A w/correction)
->Accurately ripped with different offset (v2, confidence 61/61, offset -12)
Statistics
Read error : 0
Jitter error (maybe fixed) : 0
Retry sector count : 0
Damaged sector count : 0

Track 04
Filename : /Users/theowner/Downloads/Tangerine Dream - Rubycon Expanded - Oedipus Tyrannus (2019) [FLAC]/04 Act 2 - Baroque.flac
Pre-gap length : 00:03:23

Track gain : 2.31 dB
Peak : 0.606659
CRC32 hash (test run) : 469348E2
CRC32 hash : 469348E2
CRC32 hash (skip zero) : EA66A9A8
AccurateRip v1 signature : CA8475E0
AccurateRip v2 signature : 1F8EBFAA (A60DFECD w/correction)
->Accurately ripped with different offset (v2, confidence 60/60, offset -12)
Statistics
Read error : 0
Jitter error (maybe fixed) : 0
Retry sector count : 0
Damaged sector count : 0

Track 05
Filename : /Users/theowner/Downloads/Tangerine Dream - Rubycon Expanded - Oedipus Tyrannus (2019) [FLAC]/05 Act 2 - Zeus.flac
Pre-gap length : 00:02:05

Track gain : 2.74 dB
Peak : 0.608551
CRC32 hash (test run) : 830749F2
CRC32 hash : 830749F2
CRC32 hash (skip zero) : 2D46F6CA
AccurateRip v1 signature : 3F1509EC
AccurateRip v2 signature : 23C1403C (4EA2F81A w/correction)
->Accurately ripped with different offset (v2, confidence 61/61, offset -12)
Statistics
Read error : 0
Jitter error (maybe fixed) : 0
Retry sector count : 0
Damaged sector count : 0

Track 06
Filename : /Users/theowner/Downloads/Tangerine Dream - Rubycon Expanded - Oedipus Tyrannus (2019) [FLAC]/06 Act 3.flac
Pre-gap length : 00:02:29

Track gain : -3.13 dB
Peak : 0.983276
CRC32 hash (test run) : BBC9E5A6
CRC32 hash : BBC9E5A6
CRC32 hash (skip zero) : 617F8E59
AccurateRip v1 signature : C6CC24EA
AccurateRip v2 signature : 2FEEE51E (0BE27C4A w/correction)
->Accurately ripped with different offset (v2, confidence 54/54, offset -12)
Statistics
Read error : 0
Jitter error (maybe fixed) : 0
Retry sector count : 0
Damaged sector count : 0

No errors occurred

End of status report

––-BEGIN XLD SIGNATURE––-
UKBqNWLV9psPqoamaAY1mTM28ARJzROei7ijLFq.WfXCAWgC9Pvs.T5OreeV4iFCsLeJuP.OraAH9inmL8fSv.zKQhj8V8VkfiZKVZm
––-END XLD SIGNATURE––-

Thanks to the Original ripper !