Subcategories

Gabor Tarkövi - Italian Trumpet Concertos [Tudor 7161] (2009) {Hybrid-SACD // EAC Rip}

Posted By: luckburz
Gabor Tarkövi - Italian Trumpet Concertos [Tudor 7161] (2009) {Hybrid-SACD // EAC Rip}

Gabor Tarkövi - Italian Trumpet Concertos
Mojca Erdmann, Soprano / Kammerorchester des Bayerischen Rundfunks / Radoslaw Szulc
EAC+LOG+CUE | FLAC: 287 MB | Full Artwork | 5% Recovery Info
Label/Cat#: Tudor # 7161 | Country/Year: Switzerland 2009
Genre: Classical | Style: Baroque, Trumpet

MD5 [X] CUE [X] LOG [X] INFO TEXT [X] ARTWORK [X]

selfrip [X] not my rip []

Gabor Tarkövi - Italian Trumpet Concertos [Tudor 7161] (2009) {Hybrid-SACD // EAC Rip}



Exact Audio Copy V1.0 beta 3 from 29. August 2011

EAC extraction logfile from 13. September 2012, 9:56

Gabor Tarkövi / Ittalian Trumpet Concertos

Used drive : PIONEER BD-RW BDR-206 Adapter: 0 ID: 2

Read mode : Secure
Utilize accurate stream : Yes
Defeat audio cache : Yes
Make use of C2 pointers : No

Read offset correction : 667
Overread into Lead-In and Lead-Out : No
Fill up missing offset samples with silence : Yes
Delete leading and trailing silent blocks : No
Null samples used in CRC calculations : Yes
Used interface : Native Win32 interface for Win NT & 2000

Used output format : User Defined Encoder
Selected bitrate : 1024 kBit/s
Quality : High
Add ID3 tag : Yes
Command line compressor : C:\Program Files\FLAC\flac.exe
Additional command line options : -5 -T "Artist=%artist%" -T "Title=%title%" -T "Album=%albumtitle%" -T "Date=%year%" -T "Tracknumber=%tracknr%" -T "Genre=%genre%" %source% -o %dest%


TOC of the extracted CD

Track | Start | Length | Start sector | End sector
––––––––––––––––––––––––––––-
1 | 0:00.00 | 3:34.48 | 0 | 16097
2 | 3:34.48 | 2:38.34 | 16098 | 27981
3 | 6:13.07 | 2:12.15 | 27982 | 37896
4 | 8:25.22 | 2:32.28 | 37897 | 49324
5 | 10:57.50 | 3:31.73 | 49325 | 65222
6 | 14:29.48 | 4:07.50 | 65223 | 83797
7 | 18:37.23 | 3:57.60 | 83798 | 101632
8 | 22:35.08 | 4:41.46 | 101633 | 122753
9 | 27:16.54 | 2:13.32 | 122754 | 132760
10 | 29:30.11 | 2:14.15 | 132761 | 142825
11 | 31:44.26 | 1:45.52 | 142826 | 150752
12 | 33:30.03 | 6:05.62 | 150753 | 178189
13 | 39:35.65 | 3:50.45 | 178190 | 195484
14 | 43:26.35 | 3:15.20 | 195485 | 210129
15 | 46:41.55 | 3:32.53 | 210130 | 226082
16 | 50:14.33 | 3:53.57 | 226083 | 243614
17 | 54:08.15 | 2:55.15 | 243615 | 256754
18 | 57:03.30 | 2:20.25 | 256755 | 267279
19 | 59:23.55 | 2:16.40 | 267280 | 277519


Range status and errors

Selected range

Filename F:\=== VINYL RIPS ===\=== EAC===\X FRESH RIP\Gabor Tarkövi - Ittalian Trumpet Concertos.wav

Peak level 98.6 %
Extraction speed 7.9 X
Range quality 100.0 %
Test CRC 75F67FBA
Copy CRC 75F67FBA
Copy OK

No errors occurred


AccurateRip summary

Track 1 accurately ripped (confidence 1) [E812FBAD] (AR v1)
Track 2 accurately ripped (confidence 1) [06BE2922] (AR v1)
Track 3 accurately ripped (confidence 1) [316C0875] (AR v1)
Track 4 accurately ripped (confidence 1) [99E1EF17] (AR v1)
Track 5 accurately ripped (confidence 1) [45B7AD34] (AR v1)
Track 6 accurately ripped (confidence 1) [F99E6E3D] (AR v1)
Track 7 accurately ripped (confidence 1) [0DC59B40] (AR v1)
Track 8 accurately ripped (confidence 1) [37ECB61A] (AR v1)
Track 9 accurately ripped (confidence 1) [65217FE0] (AR v1)
Track 10 accurately ripped (confidence 1) [329C6BAB] (AR v1)
Track 11 accurately ripped (confidence 1) [2EB01C8A] (AR v1)
Track 12 accurately ripped (confidence 1) [BC51F119] (AR v1)
Track 13 accurately ripped (confidence 1) [D3942012] (AR v1)
Track 14 accurately ripped (confidence 1) [10A3D433] (AR v1)
Track 15 accurately ripped (confidence 1) [B3CBFD70] (AR v1)
Track 16 accurately ripped (confidence 1) [643E3A36] (AR v1)
Track 17 accurately ripped (confidence 1) [DC882AAE] (AR v1)
Track 18 accurately ripped (confidence 1) [3A998AF4] (AR v1)
Track 19 accurately ripped (confidence 1) [4D92FE65] (AR v1)

All tracks accurately ripped

End of status report

–– CUETools DB Plugin V2.1.3

[CTDB TOCID: ypR60pxt8TMK62V6YZYApkQWw6s-] found, Submit result: ypR60pxt8TMK62V6YZYApkQWw6s- has been confirmed
[95f42ced] (2/2) Accurately ripped


==== Log checksum 8A49FD5FCCB4EC53DDBBF4250A11B7E5E21C9917BFE27292C6422DC0937BA76A ====

foobar2000 1.1.14a / Dynamic Range Meter 1.1.1
log date: 2012-09-20 12:30:11

––––––––––––––––––––––––––––––––––––––––
Analyzed: Gabor Tarkövi / Ittalian Trumpet Concertos
––––––––––––––––––––––––––––––––––––––––

DR Peak RMS Duration Track
––––––––––––––––––––––––––––––––––––––––
DR13 -0.35 dB -17.34 dB 3:35 01-Concerto for Trumpet and Strings B flat major - Allegro
DR10 -4.89 dB -20.15 dB 2:38 02-Concerto for Trumpet and Strings B flat major - Largo
DR12 -0.89 dB -17.93 dB 2:12 03-Concerto for Trumpet and Strings B flat major - Allegro
DR13 -1.03 dB -18.68 dB 2:32 04-Rompe Sp(r)ezza
DR12 -3.15 dB -19.17 dB 3:32 05-Concerto for Trumpet, Strings and Continuo D minor - Andante e spiccato
DR11 -3.85 dB -19.37 dB 4:08 06-Concerto for Trumpet, Strings and Continuo D minor - Adagio
DR13 -1.40 dB -17.45 dB 3:58 07-Concerto for Trumpet, Strings and Continuo D minor - Presto
DR13 -0.29 dB -18.44 dB 4:42 08-Mio Tesoro per te moro
DR13 -1.37 dB -17.75 dB 2:13 09-Sonata for Trumpet, Strings and Continuo in F minor - Allegro
DR10 -3.72 dB -18.82 dB 2:14 10-Sonata for Trumpet, Strings and Continuo in F minor - Grave
DR12 -0.31 dB -16.70 dB 1:46 11-Sonata for Trumpet, Strings and Continuo in F minor - Allegro
DR13 -0.16 dB -17.38 dB 6:06 12-Alla Tromba della Fama
DR12 -1.58 dB -17.95 dB 3:51 13-Concerto for Trumpet, Strings and Coninuo in D major - Grandioso
DR12 -2.69 dB -19.44 dB 3:15 14-Concerto for Trumpet, Strings and Coninuo in D major - Andante
DR13 -0.12 dB -17.65 dB 3:33 15-Concerto for Trumpet, Strings and Coninuo in D major - Allegro grazioso
DR12 -6.17 dB -21.88 dB 3:54 16-Domine Deus from Gloria RV 589
DR13 -0.51 dB -18.39 dB 2:55 17-Concerto for Trumpet and Strings in B flat major - Allegro
DR11 -4.69 dB -19.46 dB 2:20 18-Concerto for Trumpet and Strings in B flat major - Adagio
DR13 -1.34 dB -19.22 dB 2:17 19-Concerto for Trumpet and Strings in B flat major - Allegro
––––––––––––––––––––––––––––––––––––––––

Number of tracks: 19
Official DR value: DR12

Samplerate: 44100 Hz
Channels: 2
Bits per sample: 16
Bitrate: 651 kbps
Codec: FLAC
================================================================================



CD Info:

Gabor Tarkövi - Mojca Erdmann, Soprano / Kammerorchester des Bayerischen Rundfunks / Radoslaw Szulc - Italian Trumpet Concertos

Label: Tudor
Catalog#: 7161
Format: Hybrid-SACD, Album
Country: Switzerland
Released: 2009
Genre: Classical

Tracklist:

1 - Concerto for Trumpet and Strings B flat major - Allegro 3:35
2 - Concerto for Trumpet and Strings B flat major - Largo 2:38
3 - Concerto for Trumpet and Strings B flat major - Allegro 2:12
4 - Rompe Sp(r)ezza 2:32
5 - Concerto for Trumpet, Strings and Continuo D minor - Andante e spiccato 3:32
6 - Concerto for Trumpet, Strings and Continuo D minor - Adagio 4:08
7 - Concerto for Trumpet, Strings and Continuo D minor - Presto 3:58
8 - Mio Tesoro per te moro 4:42
9 - Sonata for Trumpet, Strings and Continuo in F minor - Allegro 2:13
10 - Sonata for Trumpet, Strings and Continuo in F minor - Grave 2:14
11 - Sonata for Trumpet, Strings and Continuo in F minor - Allegro 1:46
12 - Alla Tromba della Fama 6:06
13 - Concerto for Trumpet, Strings and Coninuo in D major - Grandioso 3:51
14 - Concerto for Trumpet, Strings and Coninuo in D major - Andante 3:15
15 - Concerto for Trumpet, Strings and Coninuo in D major - Allegro grazioso 3:33
16 - Domine Deus from Gloria RV 589 3:54
17 - Concerto for Trumpet and Strings in B flat major - Allegro 2:55
18 - Concerto for Trumpet and Strings in B flat major - Adagio 2:20
19 - Concerto for Trumpet and Strings in B flat major - Allegro 2:17

Gabor Tarkövi - Italian Trumpet Concertos [Tudor 7161] (2009) {Hybrid-SACD // EAC Rip}


review by James Manheim

The listener familiar with the works of Torelli and the other common examples of Baroque trumpet music may be surprised to see the diverse list of composers represented on this Swiss-German release. In fact not one of the nine works on the album precisely qualifies as an "Italian trumpet concerto." The five concertos included were all written for other instruments, mostly an oboe, although Albinoni's Concerto in B flat major, Op. 7/3, is indeed best known in the trumpet version heard here. It takes a modern trumpet to play any of these works; although annotator Anette Unger correctly notes that transcriptions made solo instruments interchangeable for many works, the concertos wouldn't have been thought suitable for the trumpet in their own time. The valveless Baroque trumpet was a much less agile but more martial instrument than its modern counterpart. The arias by Scarlatti, Vivaldi (from the Gloria, RV 589), and Baldassare Galuppi, by contrast, did actually involve the fiery juxtaposition of soprano and trumpet. The performances here by Hungarian-German trumpeter Gabor Tarkövi, soprano Mojca Erdmann, and the Bavarian Radio Chamber Orchestra smooth over the differences among these works with smooth, technically well-controlled readings augmented by audiophile-quality sound. It's an old-school Baroque trumpet recording, calculated to display the capabilities of the trumpet soloist with lots of sunny diatonic music and crisply executed ornaments. The music is best suited for general listeners rather than for those specifically interested in the Italian Baroque concerto, but Tarkövi, especially, succeeds on the album's own terms. allmusicguide
Gabor Tarkövi - Italian Trumpet Concertos [Tudor 7161] (2009) {Hybrid-SACD // EAC Rip}

// classical music \\
// all of my uploads \\
________________

Download:

FLAC
Artwork
________________