Subcategories

Tears For Fears - Rule The World : The Greatest Hits (2017)

Posted By: delpotro
Tears For Fears - Rule The World : The Greatest Hits (2017)

Tears For Fears - Rule The World : The Greatest Hits (2017)
EAC Rip | FLAC (tracks+log+.cue) | Scans included | 01:14:29 | 527 Mb
Electronic, New Wave, Pop Rock | Label: Virgin EMI Records, Mercury Records

Following a sold-out summer arena tour highlighted by their triumphant UK return in front of 65,000-plus fans as special guests of The Killers during British Summer Time Festival at Hyde Park, Tears For Fears – Roland Orzabal [vocals, guitar, keyboards] and Curt Smith [vocals, bass, keyboards] – close out 2017 with the release of their first career-spanning Greatest Hits album, Rule The World.

Released via UMe on 10 November 2017, the 16-track Rule The World features classics such as ‘Everybody Wants To Rule The World,’ ‘Shout,’ ‘Mad World,’ ‘Head Over Heels,’ ‘Woman In Chains,’ and more, but it also boasts the first original music from the duo since 2004. This year, they recorded two new tracks—‘I Love You But I’m Lost’ and ‘Stay’ —for inclusion on the collection. The single ‘I Love You But I’m Lost’ bristles with the enigmatic energy of classic Tears For Fears, while the subtle acoustic ‘Stay’ ranks among their most emotional fare. Both fit comfortably alongside the anthems that have defined three generations.

Beyond selling 30 million albums worldwide, performing to countless sold out audiences, and winning various awards, the DNA of Tears For Fears — Roland Orzabal and Curt Smith — remains embedded within three generations of artists. Quietly casting a shadow over rock, hip-hop, electronic dance music, indie, and beyond, their music has been sampled by Kanye West, The Weeknd, David Guetta, Drake, and more, while getting covered by Lorde, Adam Lambert, Ally Brooke Hernandez, Gary Jules, and Disturbed, to name a few. Meanwhile, classic songs figure prominently everywhere from The Wire and Donnie Darko to Straight Outta Compton and Mr. Robot.
Tracklist:
1. Everybody Wants To Rule The World (04:12)
2. Shout (7" Edit) (04:46)
3. I Love You But I’m Lost (04:21)
4. Mad World (03:34)
5. Sowing The Seeds Of Love (06:17)
6. Advice For The Young At Heart (04:51)
7. Head Over Heels (04:16)
8. Woman in Chains (Feat. Oleta Adams) (06:30)
9. Change (Radio Edit) (03:57)
10. Stay (04:29)
11. Pale Shelter (2nd Single Version) (04:35)
12. Mothers Talk (U.S. Remix) (04:12)
13. Break It Down Again (04:32)
14. I Believe (04:56)
15. Raoul And The Kings Of Spain (5.17)
16. Closet Thing To Heaven (3.36)

Exact Audio Copy V1.3 from 2. September 2016

EAC extraction logfile from 7. December 2017, 12:09

Tears For Fears / Rule The World

Used drive : hp BDDVDRW CH28N Adapter: 1 ID: 0

Read mode : Secure
Utilize accurate stream : Yes
Defeat audio cache : Yes
Make use of C2 pointers : No

Read offset correction : 667
Overread into Lead-In and Lead-Out : No
Fill up missing offset samples with silence : Yes
Delete leading and trailing silent blocks : No
Null samples used in CRC calculations : Yes
Used interface : Native Win32 interface for Win NT & 2000
Gap handling : Appended to previous track

Used output format : User Defined Encoder
Selected bitrate : 1024 kBit/s
Quality : High
Add ID3 tag : No
Command line compressor : C:\Program Files (x86)\Exact Audio Copy\Flac\flac.exe
Additional command line options : -8 -e -p -V -T "ARTIST=%artist%" -T "TITLE=%title%" -T "ALBUM=%albumtitle%" -T "DATE=%year%" -T "TRACKNUMBER=%tracknr%" -T "GENRE=%genre%" -T "PERFORMER=%albuminterpret%" -T "COMPOSER=%composer%" %haslyrics%–tag-from-file=LYRICS="%lyricsfile%"%haslyrics% -T "ALBUMARTIST=%albumartist%" -T "DISCNUMBER=%cdnumber%" -T "TOTALDISCS=%totalcds%" -T "TOTALTRACKS=%numtracks%" -T "COMMENT=%comment%" %source% -o %dest%


TOC of the extracted CD

Track | Start | Length | Start sector | End sector
––––––––––––––––––––––––––––-
1 | 0:00.00 | 4:12.50 | 0 | 18949
2 | 4:12.50 | 4:46.53 | 18950 | 40452
3 | 8:59.28 | 4:21.30 | 40453 | 60057
4 | 13:20.58 | 3:34.14 | 60058 | 76121
5 | 16:54.72 | 6:17.46 | 76122 | 104442
6 | 23:12.43 | 4:51.59 | 104443 | 126326
7 | 28:04.27 | 4:16.11 | 126327 | 145537
8 | 32:20.38 | 6:30.36 | 145538 | 174823
9 | 38:50.74 | 3:57.61 | 174824 | 192659
10 | 42:48.60 | 4:29.69 | 192660 | 212903
11 | 47:18.54 | 4:35.70 | 212904 | 233598
12 | 51:54.49 | 4:12.65 | 233599 | 252563
13 | 56:07.39 | 4:32.36 | 252564 | 272999
14 | 60:40.00 | 4:56.16 | 273000 | 295215
15 | 65:36.16 | 5:17.16 | 295216 | 319006
16 | 70:53.32 | 3:36.27 | 319007 | 335233


Track 1

Filename C:\utorrent2\Tears For Fears - Rule The World (2017) [FLAC]\01 - Everybody Wants To Rule The World.wav

Pre-gap length 0:00:02.00

Peak level 98.8 %
Extraction speed 1.8 X
Track quality 99.9 %
Test CRC A787F1B9
Copy CRC A787F1B9
Track not present in AccurateRip database
Copy OK

Track 2

Filename C:\utorrent2\Tears For Fears - Rule The World (2017) [FLAC]\02 - Shout (7'' Edit).wav

Pre-gap length 0:00:00.93

Peak level 98.8 %
Extraction speed 2.2 X
Track quality 100.0 %
Test CRC A5CC9AB2
Copy CRC A5CC9AB2
Track not present in AccurateRip database
Copy OK

Track 3

Filename C:\utorrent2\Tears For Fears - Rule The World (2017) [FLAC]\03 - I Love You But I'm Lost.wav

Pre-gap length 0:00:00.86

Peak level 98.8 %
Extraction speed 2.4 X
Track quality 100.0 %
Test CRC 0E2E7D84
Copy CRC 0E2E7D84
Track not present in AccurateRip database
Copy OK

Track 4

Filename C:\utorrent2\Tears For Fears - Rule The World (2017) [FLAC]\04 - Mad World.wav

Pre-gap length 0:00:01.16

Peak level 84.1 %
Extraction speed 2.5 X
Track quality 100.0 %
Test CRC B668E141
Copy CRC B668E141
Track not present in AccurateRip database
Copy OK

Track 5

Filename C:\utorrent2\Tears For Fears - Rule The World (2017) [FLAC]\05 - Sowing The Seeds Of Love.wav

Pre-gap length 0:00:00.54

Peak level 98.8 %
Extraction speed 2.9 X
Track quality 100.0 %
Test CRC CF1C36C8
Copy CRC CF1C36C8
Track not present in AccurateRip database
Copy OK

Track 6

Filename C:\utorrent2\Tears For Fears - Rule The World (2017) [FLAC]\06 - Advice For The Young At Heart.wav

Pre-gap length 0:00:00.46

Peak level 100.0 %
Extraction speed 3.0 X
Track quality 100.0 %
Test CRC 0C508418
Copy CRC 0C508418
Track not present in AccurateRip database
Copy OK

Track 7

Filename C:\utorrent2\Tears For Fears - Rule The World (2017) [FLAC]\07 - Head Over Heels.wav

Pre-gap length 0:00:00.92

Peak level 99.6 %
Extraction speed 3.1 X
Track quality 100.0 %
Test CRC FD072B8A
Copy CRC FD072B8A
Track not present in AccurateRip database
Copy OK

Track 8

Filename C:\utorrent2\Tears For Fears - Rule The World (2017) [FLAC]\08 - Woman In Chains.wav

Pre-gap length 0:00:01.16

Peak level 100.0 %
Extraction speed 3.4 X
Track quality 100.0 %
Test CRC 9CC1A8FD
Copy CRC 9CC1A8FD
Track not present in AccurateRip database
Copy OK

Track 9

Filename C:\utorrent2\Tears For Fears - Rule The World (2017) [FLAC]\09 - Change (Radio Edit).wav

Pre-gap length 0:00:00.34

Peak level 100.0 %
Extraction speed 3.4 X
Track quality 100.0 %
Test CRC 75C7DAB5
Copy CRC 75C7DAB5
Track not present in AccurateRip database
Copy OK

Track 10

Filename C:\utorrent2\Tears For Fears - Rule The World (2017) [FLAC]\10 - Stay.wav

Pre-gap length 0:00:00.52

Peak level 98.8 %
Extraction speed 3.2 X
Track quality 99.9 %
Test CRC 4CB8ECDC
Copy CRC 4CB8ECDC
Track not present in AccurateRip database
Copy OK

Track 11

Filename C:\utorrent2\Tears For Fears - Rule The World (2017) [FLAC]\11 - Pale Shelter (2nd Single Version).wav

Pre-gap length 0:00:01.90

Peak level 100.0 %
Extraction speed 3.7 X
Track quality 100.0 %
Test CRC B852CB41
Copy CRC B852CB41
Track not present in AccurateRip database
Copy OK

Track 12

Filename C:\utorrent2\Tears For Fears - Rule The World (2017) [FLAC]\12 - Mothers Talk (U.S. Remix).wav

Pre-gap length 0:00:01.56

Peak level 98.8 %
Extraction speed 3.7 X
Track quality 100.0 %
Test CRC 77F67D96
Copy CRC 77F67D96
Track not present in AccurateRip database
Copy OK

Track 13

Filename C:\utorrent2\Tears For Fears - Rule The World (2017) [FLAC]\13 - Break It Down Again.wav

Pre-gap length 0:00:01.38

Peak level 98.8 %
Extraction speed 3.9 X
Track quality 100.0 %
Test CRC D1060547
Copy CRC D1060547
Track not present in AccurateRip database
Copy OK

Track 14

Filename C:\utorrent2\Tears For Fears - Rule The World (2017) [FLAC]\14 - I Believe.wav

Pre-gap length 0:00:00.70

Peak level 99.5 %
Extraction speed 4.0 X
Track quality 100.0 %
Test CRC D6BDBFEB
Copy CRC D6BDBFEB
Track not present in AccurateRip database
Copy OK

Track 15

Filename C:\utorrent2\Tears For Fears - Rule The World (2017) [FLAC]\15 - Raoul And The Kings Of Spain.wav

Pre-gap length 0:00:00.90

Peak level 98.8 %
Extraction speed 4.2 X
Track quality 100.0 %
Test CRC 932D5355
Copy CRC 932D5355
Track not present in AccurateRip database
Copy OK

Track 16

Filename C:\utorrent2\Tears For Fears - Rule The World (2017) [FLAC]\16 - Closest Thing To Heaven.wav

Pre-gap length 0:00:01.42

Peak level 99.6 %
Extraction speed 4.1 X
Track quality 100.0 %
Test CRC 8AB9DC66
Copy CRC 8AB9DC66
Track not present in AccurateRip database
Copy OK


None of the tracks are present in the AccurateRip database

No errors occurred

End of status report

–– CUETools DB Plugin V2.1.6

[CTDB TOCID: LwJ8A_7SXKJmFBnwDQtQXmOV9LA-] found
Submit result: LwJ8A_7SXKJmFBnwDQtQXmOV9LA- has been confirmed
Track | CTDB Status
1 | (18/19) Accurately ripped
2 | (19/19) Accurately ripped
3 | (19/19) Accurately ripped
4 | (19/19) Accurately ripped
5 | (19/19) Accurately ripped
6 | (19/19) Accurately ripped
7 | (19/19) Accurately ripped
8 | (19/19) Accurately ripped
9 | (19/19) Accurately ripped
10 | (19/19) Accurately ripped
11 | (19/19) Accurately ripped
12 | (19/19) Accurately ripped
13 | (19/19) Accurately ripped
14 | (19/19) Accurately ripped
15 | (19/19) Accurately ripped
16 | (19/19) Accurately ripped


==== Log checksum A4A34FB4CE574B2C3DF845D9B819FDCADD1AAD03F0A5F1215839736C0110CE46 ====



Tears For Fears - Rule The World : The Greatest Hits (2017)

Thanks to the Original ripper drivel !