Subcategories

Ted Curson - Tears For Dolphy (1964) {Black Lion BLCD760190 rel 1993}

Posted By: ruskaval
Ted Curson - Tears For Dolphy (1964) {Black Lion BLCD760190 rel 1993}

Ted Curson - Tears For Dolphy (1964) {Black Lion BLCD760190 rel 1993}
EAC rip (secure mode) | FLAC (tracks)+CUE+LOG -> 364 Mb | MP3 @320 -> 144 Mb
Full Artwork @ 300 dpi (jpg) -> 18 Mb | 5% repair rar
© 1964, 1993 Fontana / Black Lion | BLCD760190
Jazz / Hard Bop / Post Bop / Trumpet

Although the term "avant-garde" is used several times in the liner notes, this quartet outing by trumpeter Ted Curson, tenor saxophonist Bill Barron, bassist Herb Bushler and drummer Dick Berk actually falls between hard bop and free bop. Curson and Barron in particular made for a potent team and their interplay on nine originals (five by Curson, four by Barron) is quite impressive, swinging and occasionally witty. This CD reissue brings back the entire Tears for Dolphy album plus three of the six songs from the Flip Top LP, all recorded the same day. Although the title cut does not live up to its potential, such tunes as "Kassim," "7/4 Funny Time," "Quicksand" and "Searchin' for the Blues" manage to be both explorative and surprisingly accessible.

Musicians
Bill Barron - tenor sax, clarinet
Ted Curson - trumpet, pocket trumpet
Herb Bushler - bass
Dick Berk - drums

Recorded: August 1, 1964 Paris

Tracklisting
01 - Kassim
02 - East 6th Street
03 - 7/4 Funny Time
04 - Tears For Dolphy
05 - Quicksand
06 - Reava's Waltz
07 - Searchin' For The Blues
08 - Desolation
09 - Light Blue

Exact Audio Copy V0.99 prebeta 4 from 23. January 2008

EAC extraction logfile from 21. May 2008, 17:23

Ted Curson Quartet / Tears For Dolphy

Used drive : _NEC DVD_RW ND-3520A Adapter: 1 ID: 0

Read mode : Secure
Utilize accurate stream : Yes
Defeat audio cache : Yes
Make use of C2 pointers : No

Read offset correction : 48
Overread into Lead-In and Lead-Out : No
Fill up missing offset samples with silence : Yes
Delete leading and trailing silent blocks : No
Null samples used in CRC calculations : Yes
Used interface : Installed external ASPI interface
Gap handling : Appended to previous track

Used output format : User Defined Encoder
Selected bitrate : 1024 kBit/s
Quality : High
Add ID3 tag : No
Command line compressor : C:\Program Files\FLAC\flac.exe
Additional command line options : -8 -V -T "ARTIST=%a" -T "TITLE=%t" -T "ALBUM=%g" -T "DATE=%y" -T "TRACKNUMBER=%n" -T "GENRE=%m" -T "COMMENT=EAC FLAC -8" %s


TOC of the extracted CD

Track | Start | Length | Start sector | End sector
––––––––––––––––––––––––––––-
1 | 0:00.00 | 7:41.37 | 0 | 34611
2 | 7:41.37 | 5:38.63 | 34612 | 60024
3 | 13:20.25 | 5:28.30 | 60025 | 84654
4 | 18:48.55 | 8:32.30 | 84655 | 123084
5 | 27:21.10 | 6:39.52 | 123085 | 153061
6 | 34:00.62 | 7:10.58 | 153062 | 185369
7 | 41:11.45 | 7:47.62 | 185370 | 220456
8 | 48:59.32 | 8:45.53 | 220457 | 259884
9 | 57:45.10 | 3:43.67 | 259885 | 276676


Track 1

Filename C:\Documents and Settings\All Users\Documents\Uploads\P\Ted Curson Quartet - Tears For Dolphy (1964) [FLAC]\01 - Kassim.wav

Pre-gap length 0:00:02.00

Peak level 57.5 %
Track quality 100.0 %
Test CRC 3DD05172
Copy CRC 3DD05172
Track not present in AccurateRip database
Copy OK

Track 2

Filename C:\Documents and Settings\All Users\Documents\Uploads\P\Ted Curson Quartet - Tears For Dolphy (1964) [FLAC]\02 - East 6th Street.wav

Peak level 57.8 %
Track quality 100.0 %
Test CRC 7BE5CD6E
Copy CRC 7BE5CD6E
Track not present in AccurateRip database
Copy OK

Track 3

Filename C:\Documents and Settings\All Users\Documents\Uploads\P\Ted Curson Quartet - Tears For Dolphy (1964) [FLAC]\03 - 7-4 Funny Time.wav

Peak level 58.8 %
Track quality 99.9 %
Test CRC DAFD44BB
Copy CRC DAFD44BB
Track not present in AccurateRip database
Copy OK

Track 4

Filename C:\Documents and Settings\All Users\Documents\Uploads\P\Ted Curson Quartet - Tears For Dolphy (1964) [FLAC]\04 - Tears For Dolphy.wav

Peak level 53.2 %
Track quality 100.0 %
Test CRC 88B38B6F
Copy CRC 88B38B6F
Track not present in AccurateRip database
Copy OK

Track 5

Filename C:\Documents and Settings\All Users\Documents\Uploads\P\Ted Curson Quartet - Tears For Dolphy (1964) [FLAC]\05 - Quicksand.wav

Peak level 58.7 %
Track quality 99.9 %
Test CRC F1B8E859
Copy CRC F1B8E859
Track not present in AccurateRip database
Copy OK

Track 6

Filename C:\Documents and Settings\All Users\Documents\Uploads\P\Ted Curson Quartet - Tears For Dolphy (1964) [FLAC]\06 - Reava's Waltz.wav

Peak level 58.2 %
Track quality 100.0 %
Test CRC 952FACE5
Copy CRC 952FACE5
Track not present in AccurateRip database
Copy OK

Track 7

Filename C:\Documents and Settings\All Users\Documents\Uploads\P\Ted Curson Quartet - Tears For Dolphy (1964) [FLAC]\07 - Searchin' For The Blues.wav

Peak level 72.0 %
Track quality 100.0 %
Test CRC 263850D8
Copy CRC 263850D8
Track not present in AccurateRip database
Copy OK

Track 8

Filename C:\Documents and Settings\All Users\Documents\Uploads\P\Ted Curson Quartet - Tears For Dolphy (1964) [FLAC]\08 - Desolation.wav

Peak level 64.3 %
Track quality 100.0 %
Test CRC 19F3651D
Copy CRC 19F3651D
Track not present in AccurateRip database
Copy OK

Track 9

Filename C:\Documents and Settings\All Users\Documents\Uploads\P\Ted Curson Quartet - Tears For Dolphy (1964) [FLAC]\09 - Light Blue.wav

Peak level 73.7 %
Track quality 100.0 %
Test CRC F3E49A5D
Copy CRC F3E49A5D
Track not present in AccurateRip database
Copy OK


None of the tracks are present in the AccurateRip database

No errors occurred

End of status report


Ted Curson - Tears For Dolphy (1964) {Black Lion BLCD760190 rel 1993}

Ted Curson - Tears For Dolphy (1964) {Black Lion BLCD760190 rel 1993}



===