Subcategories

Terry Gibbs - A Jazz Band Ball, Second Set (1957) {V.S.O.P. Records #40 rel 1998}

Posted By: ruskaval
Terry Gibbs - A Jazz Band Ball, Second Set (1957) {V.S.O.P. Records #40 rel 1998}

Terry Gibbs - A Jazz Band Ball, Second Set (1957) {V.S.O.P. Records #40 rel 1998}
EAC rip (secure mode) | FLAC (tracks)+CUE+LOG -> 245 Mb | MP3 @320 -> 96 Mb
Full Artwork @ 600 dpi (jpg) -> 52 Mb | 5% repair rar
© 1957, 1998 V.S.O.P. Records / Mode Records | #40 / Mode 123
Jazz / Bop / Cool / Vibes

This reissue is unrelated to another V.S.O.P. set simply titled A Jazz Band Ball. Terry Gibbs on vibes and marimba matches wits and creativity with Victor Feldman and Larry Bunker, both of whom double on vibes and xylophone. Assisted by pianist Lou Levy, bassist Max Bennett and drummer Mel Lewis, the intriguing frontline essentially plays bop, but with a great deal of color. The interaction between the vibraphonists, who are all featured and occasionally trade off, is the main reason to acquire this very interesting set.

Personnel:
Terry Gibbs - vibes, marimba
Victor Feldman - vibes, xylophone
Larry Bunker - vibes, xylophone
Lou Levy - piano
Max Bennett - bass
Mel Lewis - drums

tracklist:
01 - The Dipsy Doodle
02 - Where Or When
03 - I'm Getting Sentimental Over You
04 - Hollywood Blues
05 - Tangerine
06 - Just Friends
07 - Softly As In A Morning Sunrise
08 - Memories Of You
09 - Broadway
10 - Allen's Alley

Exact Audio Copy V1.1 from 23. June 2015

EAC extraction logfile from 18. November 2017, 21:05

Terry Gibbs / A Jazz Band Ball, Second Set

Used drive : TSSTcorpCDDVDW SE-208DB Adapter: 1 ID: 0

Read mode : Secure
Utilize accurate stream : Yes
Defeat audio cache : Yes
Make use of C2 pointers : No

Read offset correction : 6
Overread into Lead-In and Lead-Out : No
Fill up missing offset samples with silence : Yes
Delete leading and trailing silent blocks : No
Null samples used in CRC calculations : Yes
Used interface : Native Win32 interface for Win NT & 2000
Gap handling : Appended to previous track

Used output format : User Defined Encoder
Selected bitrate : 1024 kBit/s
Quality : High
Add ID3 tag : No
Command line compressor : C:\Program Files (x86)\FLAC Frontend\tools\flac.exe
Additional command line options : -8 -V -T "ARTIST=%artist%" -T "TITLE=%title%" -T "ALBUM=%albumtitle%" -T "DATE=%year%" -T "TRACKNUMBER=%tracknr%" -T "TOTALTRACKS=%numtracks%" -T "GENRE=%genre%" -T "ALBUMARTIST=%albumartist%" -T "ALBUM ARTIST=%albumartist%" -T "COMMENT=EAC Secure Mode, Test & Copy, AccurateRip, FLAC -8" %source%


TOC of the extracted CD

Track | Start | Length | Start sector | End sector
––––––––––––––––––––––––––––-
1 | 0:00.00 | 3:33.62 | 0 | 16036
2 | 3:33.62 | 3:44.70 | 16037 | 32906
3 | 7:18.57 | 4:01.23 | 32907 | 51004
4 | 11:20.05 | 4:58.65 | 51005 | 73419
5 | 16:18.70 | 3:19.67 | 73420 | 88411
6 | 19:38.62 | 3:32.35 | 88412 | 104346
7 | 23:11.22 | 4:08.30 | 104347 | 122976
8 | 27:19.52 | 3:35.43 | 122977 | 139144
9 | 30:55.20 | 3:07.17 | 139145 | 153186
10 | 34:02.37 | 6:47.50 | 153187 | 183761


Track 1

Filename D:\_EAC\Terry Gibbs - A Jazz Band Ball, Second Set (1957) [FLAC]\01 - The Dipsy Doodle.wav

Pre-gap length 0:00:02.00

Peak level 87.7 %
Extraction speed 1.0 X
Track quality 100.0 %
Test CRC 9E9768A4
Copy CRC 9E9768A4
Track not present in AccurateRip database
Copy OK

Track 2

Filename D:\_EAC\Terry Gibbs - A Jazz Band Ball, Second Set (1957) [FLAC]\02 - Where Or When.wav

Peak level 96.1 %
Extraction speed 1.2 X
Track quality 100.0 %
Test CRC 405FEEA2
Copy CRC 405FEEA2
Track not present in AccurateRip database
Copy OK

Track 3

Filename D:\_EAC\Terry Gibbs - A Jazz Band Ball, Second Set (1957) [FLAC]\03 - I'm Getting Sentimental Over You.wav

Peak level 77.8 %
Extraction speed 1.2 X
Track quality 100.0 %
Test CRC A0ECE9D6
Copy CRC A0ECE9D6
Track not present in AccurateRip database
Copy OK

Track 4

Filename D:\_EAC\Terry Gibbs - A Jazz Band Ball, Second Set (1957) [FLAC]\04 - Hollywood Blues.wav

Peak level 84.6 %
Extraction speed 1.4 X
Track quality 100.0 %
Test CRC 50A609C9
Copy CRC 50A609C9
Track not present in AccurateRip database
Copy OK

Track 5

Filename D:\_EAC\Terry Gibbs - A Jazz Band Ball, Second Set (1957) [FLAC]\05 - Tangerine.wav

Peak level 78.2 %
Extraction speed 1.3 X
Track quality 100.0 %
Test CRC C3DE267B
Copy CRC C3DE267B
Track not present in AccurateRip database
Copy OK

Track 6

Filename D:\_EAC\Terry Gibbs - A Jazz Band Ball, Second Set (1957) [FLAC]\06 - Just Friends.wav

Peak level 98.9 %
Extraction speed 1.2 X
Track quality 99.9 %
Test CRC EA50A7B6
Copy CRC EA50A7B6
Track not present in AccurateRip database
Copy OK

Track 7

Filename D:\_EAC\Terry Gibbs - A Jazz Band Ball, Second Set (1957) [FLAC]\07 - Softly As In A Morning Sunrise.wav

Peak level 88.8 %
Extraction speed 1.5 X
Track quality 100.0 %
Test CRC D5F231E1
Copy CRC D5F231E1
Track not present in AccurateRip database
Copy OK

Track 8

Filename D:\_EAC\Terry Gibbs - A Jazz Band Ball, Second Set (1957) [FLAC]\08 - Memories Of You.wav

Peak level 80.4 %
Extraction speed 1.5 X
Track quality 100.0 %
Test CRC F92A97AF
Copy CRC F92A97AF
Track not present in AccurateRip database
Copy OK

Track 9

Filename D:\_EAC\Terry Gibbs - A Jazz Band Ball, Second Set (1957) [FLAC]\09 - Broadway.wav

Peak level 100.0 %
Extraction speed 1.2 X
Track quality 99.9 %
Test CRC 25F59A5B
Copy CRC 25F59A5B
Track not present in AccurateRip database
Copy OK

Track 10

Filename D:\_EAC\Terry Gibbs - A Jazz Band Ball, Second Set (1957) [FLAC]\10 - Allen's Alley.wav

Peak level 100.0 %
Extraction speed 1.6 X
Track quality 99.9 %
Test CRC C55B10CE
Copy CRC C55B10CE
Track not present in AccurateRip database
Copy OK


None of the tracks are present in the AccurateRip database

No errors occurred

End of status report

==== Log checksum AED1D9F7FCA8A80B829287AA76522F61195E98FD86DFB5E2FFF106BE20F0879C ====


Terry Gibbs - A Jazz Band Ball, Second Set (1957) {V.S.O.P. Records #40 rel 1998}

Terry Gibbs - A Jazz Band Ball, Second Set (1957) {V.S.O.P. Records #40 rel 1998}


see also:
Marty Paich - A Jazz Band Ball, First Set (1957) {V.S.O.P. Records #23 rel 1996}



===