Subcategories

The Allman Brothers Band - The Allman Brothers Band (1969) [MFSL UDSACD 2101, 2012]

Posted By: plonker
The Allman Brothers Band - The Allman Brothers Band (1969) [MFSL UDSACD 2101, 2012]

The Allman Brothers Band - The Allman Brothers Band (1969) [MFSL UDSACD 2101, 2012]
Rock, Blues | EAC rip | WV: IMG+CUE+EAC/log -> 262 MB | mp3@VBR V0 (248kbps) -> 67 MB
33:28 min | scans | RAR inc. 3% recovery | UL & FF | Mobile Fidelity UDSACD 2101

AMG review by Bruce Eder:
This might be the best debut album ever delivered by an American blues band, a bold, powerful, hard-edged, soulful essay in electric blues with a native Southern ambience. Some lingering elements of the psychedelic era then drawing to a close can be found in "Dreams," along with the template for the group's on-stage workouts with "Whipping Post," and a solid cover of Muddy Waters' "Trouble No More." There isn't a bad song here, and only the fact that the group did even better the next time out keeps this from getting the highest possible rating. (4.5/5)
Tracklist:
01 Don't Want You No More (02:25)
02 It's Not My Cross To Bear (05:04)
03 Black Hearted Woman (05:11)
04 Trouble No More (03:50)
05 Every Hungry Woman (04:16)
06 Dreams (07:21)
07 Whipping Post (05:20)

Exact Audio Copy V1.0 beta 3 from 29. August 2011

EAC extraction logfile from 16. February 2013, 18:56

The Allman Brothers Band / The Allman Brothers Band [MFSL UDSACD 2101]

Used drive : Optiarc DVD RW AD-7200S Adapter: 5 ID: 1

Read mode : Secure
Utilize accurate stream : Yes
Defeat audio cache : Yes
Make use of C2 pointers : No

Read offset correction : 48
Overread into Lead-In and Lead-Out : No
Fill up missing offset samples with silence : Yes
Delete leading and trailing silent blocks : No
Null samples used in CRC calculations : Yes
Used interface : Installed external ASPI interface

Used output format : User Defined Encoder
Selected bitrate : 1024 kBit/s
Quality : High
Add ID3 tag : No
Command line compressor : D:\Program Files (x86)\Exact Audio Copy\wavpack.exe
Additional command line options : -hlmx2 %source% %dest%


TOC of the extracted CD

Track | Start | Length | Start sector | End sector
––––––––––––––––––––––––––––-
1 | 0:00.00 | 2:25.21 | 0 | 10895
2 | 2:25.21 | 5:04.27 | 10896 | 33722
3 | 7:29.48 | 5:11.12 | 33723 | 57059
4 | 12:40.60 | 3:50.25 | 57060 | 74334
5 | 16:31.10 | 4:15.63 | 74335 | 93522
6 | 20:46.73 | 7:20.35 | 93523 | 126557
7 | 28:07.33 | 5:19.57 | 126558 | 150539


Range status and errors

Selected range

Filename D:\eac\The Allman Brothers Band\The Allman Brothers Band - The Allman Brothers Band [MFSL UDSACD

2101].wav

Peak level 96.9 %
Extraction speed 3.7 X
Range quality 100.0 %
Test CRC AA73162B
Copy CRC AA73162B
Copy OK

No errors occurred


AccurateRip summary

Track 1 not present in database
Track 2 not present in database
Track 3 not present in database
Track 4 not present in database
Track 5 not present in database
Track 6 not present in database
Track 7 not present in database

None of the tracks are present in the AccurateRip database

End of status report

–– CUETools DB Plugin V2.1.3

[CTDB TOCID: JAPsHibppa_cZVo9zHvyRs4nDpY-] found, Submit result: JAPsHibppa_cZVo9zHvyRs4nDpY- has been

confirmed
[95635293] (3/3) Accurately ripped


==== Log checksum 069F097FDD9524D6CB448AC94FE417A417BF67D269BD4671133D6B7FAEAFE889 ====


Not my rip! eMule find .
All credits and thanks to original releaser triGada


************ download ************