Subcategories

The Birthday Party - Hits (reupload)

Posted By: bumbo
The Birthday Party - Hits (reupload)

The Birthday Party - Hits (1999)
Post-Punk | EAC (APE+CUE+LOG) | full 300dpi scans | 518 MB
4AD | 1999 | DAD 2016 CD
rar files | 3% recovery

Ten years on, the intensity of this music is still frightening. It's a dense, mutant hybrid that evolved from punk, progressive rock, funk, and improvisational jazz, without directly owning up to any of these base materials.

Tracks
01 The Friend Catcher Cave 4:20
02 Happy Birthday Cave, Harvey, Howard 3:59
03 Mr. Clarinet Cave 3:42
04 Nick the Stripper Cave 3:50
05 Zoo Music Girl Cave, Howard 2:36
06 King Ink Cave, Howard 4:39
07 Release the Bats Cave, Howard 2:30
08 Blast Off! Howard 2:17
09 She's Hit Cave, Pew 6:05
10 Gold Blade 3:35
11 Hamlet (Pow, Pow, Pow) Cave, Howard 5:33
12 Dead Joe Cave, Lane 3:08
13 Junkyard Cave, Howard 5:48
14 Big Jesus Trash Can Cave, Harvey 3:00
15 Wildworld Cave, Harvey 3:24
16 Sonny's Burning Cave, Harvey, Howard, Pew 3:17
17 Deep in the Woods Cave, Harvey 4:46
18 Swampland Cave, Harvey, Howard, Pew 3:28
19 Jennifer's Veil Cave, Howard 4:55
20 Mutiny in Heaven Cave, Howard 4:19

Review by Roch Parisien
As an album title, Hits is an intentionally ironic misnomer for one of Australia's most influential rock bands of the late '70s and early '80s. Having "hits" was the furthest thing from the Birthday Party's collective mind over the course of five tumultuous years that followed the group's move to England from Down Under; the members reviled anything that hinted at mainstream acceptance. Ten years on, the intensity of this music is still frightening. It's a dense, mutant hybrid that evolved from punk, progressive rock, funk, and improvisational jazz, without directly owning up to any of these base materials. Vocalist Nick Cave (who has gone on to an equally creative solo career) didn't just sing about society's dark, depraved underbelly, he lived the experience right there on disc and on stage.

Exact Audio Copy V0.99 prebeta 4 from 23. January 2008

EAC extraction logfile from 3. December 2008, 21:05

Birthday Party / Hits

Used drive : PIONEER DVD-RW DVR-111D Adapter: 0 ID: 0

Read mode : Secure
Utilize accurate stream : Yes
Defeat audio cache : Yes
Make use of C2 pointers : No

Read offset correction : 48
Overread into Lead-In and Lead-Out : No
Fill up missing offset samples with silence : Yes
Delete leading and trailing silent blocks : No
Null samples used in CRC calculations : Yes
Used interface : Installed external ASPI interface

Used output format : Internal WAV Routines
Sample format : 44.100 Hz; 16 Bit; Stereo


TOC of the extracted CD

Track | Start | Length | Start sector | End sector
––––––––––––––––––––––––––––-
1 | 0:00.32 | 4:20.63 | 32 | 19594
2 | 4:21.20 | 3:59.32 | 19595 | 37551
3 | 8:20.52 | 3:42.33 | 37552 | 54234
4 | 12:03.10 | 3:50.32 | 54235 | 71516
5 | 15:53.42 | 2:36.38 | 71517 | 83254
6 | 18:30.05 | 4:39.70 | 83255 | 104249
7 | 23:10.00 | 2:30.32 | 104250 | 115531
8 | 25:40.32 | 2:17.45 | 115532 | 125851
9 | 27:58.02 | 6:05.55 | 125852 | 153281
10 | 34:03.57 | 3:35.10 | 153282 | 169416
11 | 37:38.67 | 5:33.08 | 169417 | 194399
12 | 43:12.00 | 3:08.45 | 194400 | 208544
13 | 46:20.45 | 5:48.27 | 208545 | 234671
14 | 52:08.72 | 3:00.03 | 234672 | 248174
15 | 55:09.00 | 3:24.42 | 248175 | 263516
16 | 58:33.42 | 3:17.33 | 263517 | 278324
17 | 61:51.00 | 4:46.32 | 278325 | 299806
18 | 66:37.32 | 3:28.50 | 299807 | 315456
19 | 70:06.07 | 4:55.70 | 315457 | 337651
20 | 75:02.02 | 4:17.15 | 337652 | 356941


Range status and errors

Selected range

Filename D:\Moji ripovi\Birthday Party - Hits.wav

Peak level 100.0 %
Range quality 100.0 %
Copy CRC 301F8E2E
Copy OK

No errors occurred


AccurateRip summary

Track 1 cannot be verified as accurate (confidence 3) [B8CD5D5B], AccurateRip returned [B349E8F7]
Track 2 cannot be verified as accurate (confidence 3) [CA069AE9], AccurateRip returned [5836898D]
Track 3 cannot be verified as accurate (confidence 3) [F3D6FA8C], AccurateRip returned [EB1A10B4]
Track 4 cannot be verified as accurate (confidence 3) [514279E3], AccurateRip returned [097C0E3F]
Track 5 cannot be verified as accurate (confidence 3) [3CD7BAB0], AccurateRip returned [93011928]
Track 6 cannot be verified as accurate (confidence 3) [EEF636B6], AccurateRip returned [065763CC]
Track 7 cannot be verified as accurate (confidence 3) [386FAD58], AccurateRip returned [EF8979BD]
Track 8 cannot be verified as accurate (confidence 3) [E5D1810B], AccurateRip returned [60CDF6AC]
Track 9 cannot be verified as accurate (confidence 3) [4D4CD6DB], AccurateRip returned [3D22F25C]
Track 10 cannot be verified as accurate (confidence 3) [0F196929], AccurateRip returned [FDD8775D]
Track 11 cannot be verified as accurate (confidence 3) [31845CBF], AccurateRip returned [F6F44E6F]
Track 12 cannot be verified as accurate (confidence 3) [5A73A3BA], AccurateRip returned [4A69356E]
Track 13 cannot be verified as accurate (confidence 3) [F714DBD6], AccurateRip returned [312F3A1C]
Track 14 cannot be verified as accurate (confidence 3) [7502ED85], AccurateRip returned [2E1082D8]
Track 15 cannot be verified as accurate (confidence 3) [34FEF0AD], AccurateRip returned [CD5E2161]
Track 16 cannot be verified as accurate (confidence 3) [F22CCB85], AccurateRip returned [0ADD187D]
Track 17 cannot be verified as accurate (confidence 3) [33CF8BD6], AccurateRip returned [0AE26D1D]
Track 18 cannot be verified as accurate (confidence 3) [DC95AB29], AccurateRip returned [455E742A]
Track 19 cannot be verified as accurate (confidence 3) [772E5503], AccurateRip returned [F1976BE1]
Track 20 cannot be verified as accurate (confidence 2) [01CD329C], AccurateRip returned [ECAF08A7]

No tracks could be verified as accurate
You may have a different pressing from the one(s) in the database

End of status report



Passwod: www.AvaxHome.ru