Subcategories

A Bugs Life: The BUGS' Complete Studio CD Collection (2005-2013) RESTORED

Posted By: Rehabilly
A Bugs Life: The BUGS' Complete Studio CD Collection (2005-2013) RESTORED

A Bugs Life: The BUGS' Complete Studio CD Collection (2005-2013)
2x EAC Rip | FLAC+CUE+LOG or MP3 CBR 320 Kbps | Complete Scanwork | 229 or 69 MB

A fun side project, from Dave "Dangerous" Swain (The Queers, Jon Cougar Concentration Camp, Rich White Males), offer you a lots of a short and catchy Pop Punk tunes with a simple, politically incorrect lyrics. For fans of the Drunken Cholos, Angry Samoans, the Dwarves and the bands that listed before… Forgets about the world for a while - here is the straight ahead Punk Rock in action!







A Bugs Life: The BUGS' Complete Studio CD Collection (2005-2013) RESTORED

The Bugs - The Bugs (2008)
FLAC+CUE+LOG or MP3 CBR 320 | 13:34 min | 102 or 31 MB

Tracklist:

01. Lesbo! Lesbo!
02. Never Went Gay
03. Back On The Weed
04. Dave Navarro's Goatee Fucking Sucks
05. I Wish I Was A Mexican
06. Can't Get Hired
07. Dopefiend
08. I'm Turning Gay
09. Meth On My Mind
10. No More Emo Haircuts
11. Email From A She-Male

all songs written by The Bugs

Exact Audio Copy V1.0 beta 1 from 15. November 2010

EAC extraction logfile from 27. July 2013, 18:38

The Bugs / The Bugs

Used drive : PIONEER DVD-RW DVR-219L Adapter: 1 ID: 0

Read mode : Secure
Utilize accurate stream : Yes
Defeat audio cache : Yes
Make use of C2 pointers : No

Read offset correction : 6
Overread into Lead-In and Lead-Out : No
Fill up missing offset samples with silence : Yes
Delete leading and trailing silent blocks : No
Null samples used in CRC calculations : Yes
Used interface : Installed external ASPI interface

Used output format : Internal WAV Routines
Sample format : 44.100 Hz; 16 Bit; Stereo


TOC of the extracted CD

Track | Start | Length | Start sector | End sector
––––––––––––––––––––––––––––-
1 | 0:00.00 | 1:06.48 | 0 | 4997
2 | 1:06.48 | 0:41.48 | 4998 | 8120
3 | 1:48.21 | 0:53.48 | 8121 | 12143
4 | 2:41.69 | 1:57.48 | 12144 | 20966
5 | 4:39.42 | 0:47.48 | 20967 | 24539
6 | 5:27.15 | 0:56.48 | 24540 | 28787
7 | 6:23.63 | 1:53.48 | 28788 | 37310
8 | 8:17.36 | 1:35.48 | 37311 | 44483
9 | 9:53.09 | 1:30.48 | 44484 | 51281
10 | 11:23.57 | 0:56.48 | 51282 | 55529
11 | 12:20.30 | 1:13.48 | 55530 | 61052


Range status and errors

Selected range

Filename C:\_www.AvaxHome.ru\Bugs, The\2008- The Bugs [Japanese Pressing]\The Bugs - The Bugs (FACE-057).wav

Peak level 99.9 %
Extraction speed 0.2 X
Range quality 100.0 %
Test CRC 88AE6ACF
Copy CRC 88AE6ACF
Copy OK

No errors occurred


AccurateRip summary

Track 1 not present in database
Track 2 not present in database
Track 3 not present in database
Track 4 not present in database
Track 5 not present in database
Track 6 not present in database
Track 7 not present in database
Track 8 not present in database
Track 9 not present in database
Track 10 not present in database
Track 11 not present in database

None of the tracks are present in the AccurateRip database

End of status report

==== Log checksum BB79EB36691E3A14DA519F959E09F423C7EADEAA58CF7A1FD155CC244814BB43 ====


Produced by Chris Fields. Mastered at PAF! Disques.

• Dangerous Dave - vocals, bass
• Russell Hicks - guitar, backing vox
• Chip Fracture - drums

Original Release Date: 2007
This CD Released: July 1, 2008
Format: Original Recording Reissued
Label: Inya Face Records, Japan
Catalog No.: FACE-057


A Bugs Life: The BUGS' Complete Studio CD Collection (2005-2013) RESTORED

The Bugs - Missile To The Middle East (2013)
FLAC+CUE+LOG or MP3 CBR 320 | 15:56 min | 127 or 36 MB

A Bugs Life: The BUGS' Complete Studio CD Collection (2005-2013) RESTORED

Tracklist:

01. I'm Getting Fat
02. Back In The Barrio
03. eHarmony Rejected Me (featuring Ben Weasel)
04. I'm Single Again (featuring Joe Queer)
05. Goin' Down To Brown Town
06. Welcome To The World
07. Apeman [The Kinks cover]
08. My Favorite Baseball Team Is Fucking Bad
09. I Do Butt Stuff (featuring Blag the Ripper)
10. Missle To The Middle East

all songs written by Dave Swain except "7" by Ray Davies

Exact Audio Copy V1.0 beta 1 from 15. November 2010

EAC extraction logfile from 27. July 2013, 19:05

The Bugs / Missle To The Middle East

Used drive : PIONEER DVD-RW DVR-219L Adapter: 1 ID: 0

Read mode : Secure
Utilize accurate stream : Yes
Defeat audio cache : Yes
Make use of C2 pointers : No

Read offset correction : 6
Overread into Lead-In and Lead-Out : No
Fill up missing offset samples with silence : Yes
Delete leading and trailing silent blocks : No
Null samples used in CRC calculations : Yes
Used interface : Installed external ASPI interface

Used output format : Internal WAV Routines
Sample format : 44.100 Hz; 16 Bit; Stereo


TOC of the extracted CD

Track | Start | Length | Start sector | End sector
––––––––––––––––––––––––––––-
1 | 0:00.00 | 0:35.73 | 0 | 2697
2 | 0:35.73 | 0:53.58 | 2698 | 6730
3 | 1:29.56 | 2:03.41 | 6731 | 15996
4 | 3:33.22 | 1:22.67 | 15997 | 22213
5 | 4:56.14 | 1:05.37 | 22214 | 27125
6 | 6:01.51 | 1:35.32 | 27126 | 34282
7 | 7:37.08 | 1:59.72 | 34283 | 43279
8 | 9:37.05 | 1:23.39 | 43280 | 49543
9 | 11:00.44 | 1:05.54 | 49544 | 54472
10 | 12:06.23 | 3:50.11 | 54473 | 71733


Range status and errors

Selected range

Filename C:\_www.AvaxHome.ru\Bugs, The\2013- Missile To The Middle East\The Bugs - Missle To The Middle East (KTR-15).wav

Peak level 99.1 %
Extraction speed 0.7 X
Range quality 100.0 %
Test CRC 6335E9F7
Copy CRC 6335E9F7
Copy OK

No errors occurred


AccurateRip summary

Track 1 not present in database
Track 2 not present in database
Track 3 not present in database
Track 4 not present in database
Track 5 not present in database
Track 6 not present in database
Track 7 not present in database
Track 8 not present in database
Track 9 not present in database
Track 10 not present in database

None of the tracks are present in the AccurateRip database

End of status report

==== Log checksum 45318601E936E59B85BF7A65D07F261531711CDBCE143E159156BA9EC2BBE0F2 ====


Produced by Chris Fields with Dangerous Dave
Recorded at Fighting Unicorns Studio in El Cajon, CA.

• Dangerous Dave - vocals, bass
• Chip Fracture - drums, backing vox
• John Gulbunny - guitar, hanging sax

Release Date: April 16, 2013
Format: Original Recording
Label: Kid Tested Records
Catalog No.: KTR-15


all materials has published without any permission and distributed in evaluation mode only. Always remember:
If you like it - buy it / go to the band's shows, purchase their merch, etc… Support the independent label/Artist!


The Right choice*
http://www.nitroflare.com/view/ECF8E4D146C3A39

all covers.png (30 MB)
http://www.nitroflare.com/view/1307225B92B6CD3

lossy
http://www.nitroflare.com/view/5109840F6DFD1DA


* Original CD -> EAC Image, embedded cuesheet & more, foobar2000 ready, etc.



The Right choice*
http://www.nitroflare.com/view/D2FF750C5AF383C

all covers.png (36 MB)
http://www.nitroflare.com/view/890F35DA5242676

lossy
http://www.nitroflare.com/view/32D44BA9784DDAA


* Original CD -> EAC Image, embedded cuesheet & more, foobar2000 ready, etc.




all CUEs, LOGs and other technical info includes in the internal "CD_Support" archive

___________________________________