Subcategories

The Cars - Moving In Stereo: The Best of The Cars (2016)

Posted By: delpotro
The Cars - Moving In Stereo: The Best of The Cars (2016)

The Cars - Moving In Stereo: The Best of The Cars (2016)
EAC Rip | FLAC (image+log+.cue) | 01:12:07 | 503 Mb
Pop Rock, New Wave | Label: Elektra Records

The collection is produced by the band, with all surviving members contributing to song selection. Ocasek also supervised digital remastering of all the audio with Ted Jensen at Sterling Sound. The collection features the band s big hits along with a rare, single mix for I m Not The One, as well as a live version of Everything You Say, and a new mix by producer Philippe Zdar of Sad Song, a track from the band s last album, 2011 s Move Like This.
Tracklist:
01.Just What I Needed 3:43
02.Since You're Gone 3:31
03.Let's Go 3:33
04.You Might Think 3:05
05.Shake It Up 3:34
06.Drive 3:55
07.Tonight She Comes 3:53
08.My Best Friend's Girl 3:44
09.Don't Tell Me No 4:01
10.You're All I've Got Tonight 4:14
11.I'm Not The One (Single Mix) 4:08
12.Candy-O 2:37
13.Heartbeat City 4:27
14.Touch and Go 4:55
15.Moving In Stereo 4:40
16.Dangerous Type 4:30
17.Sad Song (Zdar Mix) 3:38
18.Everything You Say (Live) 5:18

Exact Audio Copy V1.0 beta 3 from 29. August 2011

Отчёт EAC об извлечении, выполненном 30. июля 2016, 15:05

The Cars / Moving In Stereo: The Best Of The Cars

Дисковод: Optiarc DVD RW AD-7243S Adapter: 3 ID: 1

Режим чтения : Достоверность
Использование точного потока : Да
Отключение кэша аудио : Да
Использование указателей C2 : Нет

Коррекция смещения при чтении : 48
Способность читать области Lead-in и Lead-out : Нет
Заполнение пропущенных сэмплов тишиной : Да
Удаление блоков с тишиной в начале и конце : Нет
При вычислениях CRC использовались нулевые сэмплы : Да
Интерфейс : Встроенный Win32-интерфейс для Win NT/2000

Выходной формат : Пользовательский кодировщик
Выбранный битрейт : 768 kBit/s
Качество : Высокий
Добавление ID3-тега : Нет
Утилита сжатия : C:\Program Files (x86)\Exact Audio Copy\FLAC\FLAC.EXE
Дополнительные параметры : -6 -V -T "ARTIST=%artist%" -T "TITLE=%title%" -T "ALBUM=%albumtitle%" -T "DATE=%year%" -T "TRACKNUMBER=%tracknr%" -T "GENRE=%genre%" -T "COMMENT=%comment%" -T "BAND=%albuminterpret%" -T "ALBUMARTIST=%albuminterpret%" -T "COMPOSER=%composer%" %haslyrics%–tag-from-file=LYRICS="%lyricsfile%"%haslyrics% -T "DISCNUMBER=%cdnumber%" -T "TOTALDISCS=%totalcds%" -T "TOTALTRACKS=%numtracks%" %hascover%–picture="%coverfile%"%hascover% %source% -o %dest%


TOC извлечённого CD

Трек | Старт | Длительность | Начальный сектор | Конечный сектор
––––––––––––––––––––––––––––––––––-
1 | 0:00.00 | 3:45.44 | 0 | 16918
2 | 3:45.44 | 3:33.26 | 16919 | 32919
3 | 7:18.70 | 3:35.45 | 32920 | 49089
4 | 10:54.40 | 3:07.18 | 49090 | 63132
5 | 14:01.58 | 3:36.04 | 63133 | 79336
6 | 17:37.62 | 3:57.14 | 79337 | 97125
7 | 21:35.01 | 3:55.26 | 97126 | 114776
8 | 25:30.27 | 3:46.32 | 114777 | 131758
9 | 29:16.59 | 4:03.06 | 131759 | 149989
10 | 33:19.65 | 4:16.18 | 149990 | 169207
11 | 37:36.08 | 4:10.33 | 169208 | 187990
12 | 41:46.41 | 2:39.52 | 187991 | 199967
13 | 44:26.18 | 4:29.38 | 199968 | 220180
14 | 48:55.56 | 4:57.30 | 220181 | 242485
15 | 53:53.11 | 4:42.28 | 242486 | 263663
16 | 58:35.39 | 4:31.74 | 263664 | 284062
17 | 63:07.38 | 3:40.67 | 284063 | 300629
18 | 66:48.30 | 5:18.46 | 300630 | 324525


Характеристики диапазона извлечения и сообщения об ошибках

Выбранный диапазон

Имя файла G:\Временная\The Cars - Moving In Stereo- The Best Of The Cars.wav

Пиковый уровень 100.0 %
Скорость извлечения 4.5 X
Качество диапазона 100.0 %
CRC теста A9F6EAE9
CRC копии A9F6EAE9
Копирование… OK

Ошибок не произошло

Конец отчёта

Thanks to the Original ripper meloman-68 !