Subcategories

VA - The Doom Generation (Music From The Motion Picture) (1995)

Posted By: muddboogers
VA - The Doom Generation (Music From The Motion Picture) (1995)

VA - The Doom Generation (Music From The Motion Picture) (1995)
EAC | FLAC Image with CUE & LOG | 74:00 mins | Scans | RAR 3% Recovery | 475 MB
Alternative / Indie Rock / Electronica | 1995 American Recordings #9 43063-2

Befitting the dark, surreal vibe of the road movie Doom Generation, the musical talent assembled for the soundtrack is decidedly weighted in acts with a gothic hue. With a good half-dozen tracks previously unavailable for consumption (particularly in the U.S. market), the album ranges from college radio stalwarts such as Curve (the throbbing, metallic-tinged "On the Wheel") and Pizzicato Five (whose delightfully breezy "Groovy Is My Name" adds a bit of variety to the collection) to the lesser-known Babyland (their moody stomp "Double Coupon" is a sleazy delight). There are more hits (Cocteau Twins' lovely "Summerblink," Jesus and Mary Chain's revved-up "Penetration") than misses (Love & Rockets' middling, ambient rocker "This Heaven," the mix of Lush's "Undertow," which borders on interminable) and cohesion to make Doom Generation's soundtrack a fine serving of modern rock for all but the most difficult-to-please listeners ~ Tom Demalon, allmusic.com
VA - The Doom Generation (Music From The Motion Picture) (1995)

The Doom Generation @ Discogs

Tracklist:
1. Intro (0:05)
2. Curve - On The Wheel (6:02)
3. Love & Rockets - This Heaven (7:11)
4. Cocteau Twins - Summerblink (3:10)
5. The Wolfgang Press - Christianity (The Adrian Sherwood Mix) (8:34)
6. Meat Beat Manifesto - Paradise Now (Remix) (5:13)
7. The Verve - Already There (5:40)
8. The Jesus and Mary Chain - Penetration (2:48)
9. MC 900 Ft Jesus - But If You Go (5:41)
10. Lush - Undertow (The Spooky Mix) (9:13)
11. Babyland - Double Coupon (3:44)
12. Medicine - Slut (3:56)
13. Pizzicato Five - Groovy Is My Name (3:26)
14. Extra Fancy - Violator (2:59)
15. Slowdive - Blue Skied An' Clear (6:51)

Exact Audio Copy V1.0 beta 2 from 29. April 2011

EAC extraction logfile from 25. June 2011, 19:51

Various Artists / The Doom Generation (Music From The Motion Picture)

Used drive : TDK CDRW4800B Adapter: 2 ID: 1

Read mode : Secure
Utilize accurate stream : Yes
Defeat audio cache : Yes
Make use of C2 pointers : No

Read offset correction : 6
Overread into Lead-In and Lead-Out : No
Fill up missing offset samples with silence : Yes
Delete leading and trailing silent blocks : No
Null samples used in CRC calculations : Yes
Used interface : Native Win32 interface for Win NT & 2000

Used output format : Internal WAV Routines
Sample format : 44.100 Hz; 16 Bit; Stereo


TOC of the extracted CD

Track | Start | Length | Start sector | End sector
––––––––––––––––––––––––––––-
1 | 0:00.32 | 0:04.43 | 32 | 374
2 | 0:05.00 | 6:02.10 | 375 | 27534
3 | 6:07.10 | 7:11.10 | 27535 | 59869
4 | 13:18.20 | 3:10.17 | 59870 | 74136
5 | 16:28.37 | 8:34.03 | 74137 | 112689
6 | 25:02.40 | 5:13.15 | 112690 | 136179
7 | 30:15.55 | 5:40.00 | 136180 | 161679
8 | 35:55.55 | 2:47.67 | 161680 | 174271
9 | 38:43.47 | 5:40.55 | 174272 | 199826
10 | 44:24.27 | 9:13.08 | 199827 | 241309
11 | 53:37.35 | 3:43.52 | 241310 | 258086
12 | 57:21.12 | 3:56.00 | 258087 | 275786
13 | 61:17.12 | 3:26.33 | 275787 | 291269
14 | 64:43.45 | 2:59.12 | 291270 | 304706
15 | 67:42.57 | 6:51.33 | 304707 | 335564


Range status and errors

Selected range

Filename E:\[# AvaxHome #]\Various Artists - The Doom Generation (Music From The Motion Picture).wav

Peak level 100.0 %
Extraction speed 10.2 X
Range quality 100.0 %
Test CRC 6A0C6B1A
Copy CRC 6A0C6B1A
Copy OK

No errors occurred


AccurateRip summary

Track 1 not present in database
Track 2 accurately ripped (confidence 5) [438C59FB] (AR v1)
Track 3 accurately ripped (confidence 6) [FECFAB77] (AR v1)
Track 4 accurately ripped (confidence 5) [099EC03B] (AR v1)
Track 5 accurately ripped (confidence 6) [B5A5CD99] (AR v1)
Track 6 accurately ripped (confidence 5) [46788922] (AR v1)
Track 7 accurately ripped (confidence 5) [AD8990DE] (AR v1)
Track 8 accurately ripped (confidence 5) [41553E63] (AR v1)
Track 9 accurately ripped (confidence 5) [937DD679] (AR v1)
Track 10 accurately ripped (confidence 5) [F2CD08B1] (AR v1)
Track 11 accurately ripped (confidence 5) [7ADB3087] (AR v1)
Track 12 accurately ripped (confidence 5) [9B01BB25] (AR v1)
Track 13 accurately ripped (confidence 5) [B6595A50] (AR v1)
Track 14 accurately ripped (confidence 5) [9E6B91B6] (AR v1)
Track 15 accurately ripped (confidence 5) [ABB0D56D] (AR v1)

14 track(s) accurately ripped
1 track(s) not present in the AccurateRip database

Some tracks could not be verified as accurate

End of status report

==== Log checksum BE28B8D57E229696A6AEF64AE45689677D0C1E6C3A392079C3ECD9B4C13BAE31 ====

FileServe
Part 1
Part 2
Part 3
Part 4
Part 5

FileSonic
Part 1
Part 2
Part 3
Part 4
Part 5

Interchangeable archives

Password: www.AvaxHome.ws