Subcategories

The Doors - Live at the Matrix '67

Posted By: bumbo
The Doors - Live at the Matrix '67

The Doors - Live at the Matrix '67
Rock | EAC (APE+CUE+LOG) | 300dpi scans | 731 MB
DMC/Bright Midnight/Rhino | 2008 | 8122-79884-8 | rar files | 3% recovery

All told, it's an excellent document of their early days that's strongly recommended to Doors fans.

Tracks
CD 1
01 Break on Through (To the Other Side) Doors 3:47
02 Soul Kitchen Doors 5:51
03 Money Bradford, Gordy 3:02
04 The Crystal Ship Doors 2:50
05 Twentieth Century Fox Doors 2:46
06 I'm a King Bee Moore 3:48
07 Alabama Song (Whisky Bar) Doors 3:16
08 Summer's Almost Gone Doors 3:46
09 Light My Fire Doors 8:14
10 Get out of My Life Woman Toussaint 3:58
11 Back Door Man Doors 5:14
12 Who Do You Love McDaniel 4:31
13 The End Doors 13:54

CD 2
01 Unhappy Girl Doors 3:56
02 Moonlight Drive Doors 5:39
03 Woman Is a Devil/Rock Me Doors, Waters 8:08
04 People Are Strange Doors 2:14
05 Close to You Dixon 2:56
06 My Eyes Have Seen You Doors 2:56
07 Crawling King Snake Doors 4:53
08 I Can't See Your Face in My Mind Doors 3:07
09 Summertime Gershwin 8:29
10 When the Music's Over Doors 11:11
11 Gloria Morrison 5:36

Review by Richie Unterberger
When the Doors were playing at the Matrix club in San Francisco on March 7 and March 10 of 1967, unofficial tapes were made of their performances. Music from four sets (two each night) of these gigs has long been available on bootleg, and a couple tracks did show up on the Doors' 1997 box set. This two-CD package, however, marks the first official release of material from these shows in bulk. They represent the earliest concert recordings of the band that have been made available, dating from just two months after the release of their debut album (and a few months before the "Light My Fire" single would catch on and make them superstars). While this by no means has the complete recordings from these two nights that have circulated on bootleg, it does contain one version of every single song captured on the tapes. The sound quality, too, is substantially improved from those bootlegs (though it's not true, as the liner notes claim, that all of those bootlegs had "the worst quality imaginable"). If it's not quite up to the level of the fidelity heard on most official live albums (or even some more adeptly recorded Doors live shows from later in their career that have seen official release), the instruments and vocals come through pretty well, and can easily be listened to for pleasure as well as historical archival value.

More important than the technical and discographical details, however, is the quality of the performances themselves. And while they're occasionally a bit ragged, and certainly not as sleek and cleanly balanced as their studio recordings, you could make an argument for this as the finest Doors live release, from the musical if not the fidelity point of view. For these are the Doors, and Jim Morrison in particular, when they were still hungry and eager to make an impression, with little of the somewhat self-parodying theatricalism that Morrison would sometimes lapse into on-stage after reaching superstardom. There are lean, urgent versions of most of the songs from their classic debut album, as well as, more surprisingly, about half the numbers from the yet-to-be-released Strange Days. "Unhappy Girl," "Moonlight Drive," "My Eyes Have Seen You," "People Are Strange," and "I Can't See Your Face in My Mind" especially have notably sparer arrangements, betraying the band's roots as more of a straight-ahead rock outfit prior to these songs getting effectively psychedelicized studio treatments. There's even a version of one tune, "Summer's Almost Gone," that they'd wait until their third album, Waiting for the Sun, to put on a studio LP.

Filling out the set are a good number of cover tunes that the Doors didn't release in the '60s, including several blues and R&B covers. While these have their interest for documenting aspects of their repertoire that aren't fully evident from their studio albums, they also reveal the group to be much less interesting when playing such cover tunes – among them "Money," John Lee Hooker's "Crawling King Snake," Lee Dorsey's "Get out of My Life Woman," and Them's "Gloria" – than they were when doing their own material. Still, even these selections include some standouts, especially a burning version of "Who Do You Love" that outdoes the more laid-back one on Absolutely Live, and an instrumental version of "Summertime" that gives Ray Manzarek a chance to showcase his organ chops. It's also odd to hear such a cool, almost non-reception from the sparse audience, giving the impression the Doors were playing to a near-empty club, though they seem to be putting as much or more heart into their performance as they would later do for most of their arena concerts. All told, it's an excellent document of their early days that's strongly recommended to Doors fans. It would have been even neater for hardcore fanatics had all four sets from the two nights been included, but admittedly the elimination of multiple versions and resequencing makes this a much more listenable product for the general audience.

Exact Audio Copy V0.99 prebeta 4 from 23. January 2008

EAC extraction logfile from 19. April 2009, 1:28

The Doors / Live At The Matrix '67 (Disc 1)

Used drive : PIONEER DVD-RW DVR-111D Adapter: 0 ID: 0

Read mode : Secure
Utilize accurate stream : Yes
Defeat audio cache : Yes
Make use of C2 pointers : No

Read offset correction : 48
Overread into Lead-In and Lead-Out : No
Fill up missing offset samples with silence : Yes
Delete leading and trailing silent blocks : No
Null samples used in CRC calculations : Yes
Used interface : Installed external ASPI interface

Used output format : Internal WAV Routines
Sample format : 44.100 Hz; 16 Bit; Stereo


TOC of the extracted CD

Track | Start | Length | Start sector | End sector
––––––––––––––––––––––––––––-
1 | 0:00.00 | 3:47.06 | 0 | 17030
2 | 3:47.06 | 5:51.51 | 17031 | 43406
3 | 9:38.57 | 3:02.61 | 43407 | 57117
4 | 12:41.43 | 2:50.50 | 57118 | 69917
5 | 15:32.18 | 2:46.03 | 69918 | 82370
6 | 18:18.21 | 3:48.21 | 82371 | 99491
7 | 22:06.42 | 3:16.13 | 99492 | 114204
8 | 25:22.55 | 3:46.70 | 114205 | 131224
9 | 29:09.50 | 8:14.25 | 131225 | 168299
10 | 37:24.00 | 3:58.68 | 168300 | 186217
11 | 41:22.68 | 5:14.23 | 186218 | 209790
12 | 46:37.16 | 4:31.72 | 209791 | 230187
13 | 51:09.13 | 13:54.28 | 230188 | 292765


Range status and errors

Selected range

Filename D:\Moji ripovi\The Doors - Live At The Matrix '67 (Disc 1).wav

Peak level 100.0 %
Range quality 100.0 %
Test CRC C068000B
Copy CRC C068000B
Copy OK

No errors occurred


AccurateRip summary

Track 1 not present in database
Track 2 not present in database
Track 3 not present in database
Track 4 not present in database
Track 5 not present in database
Track 6 not present in database
Track 7 not present in database
Track 8 not present in database
Track 9 not present in database
Track 10 not present in database
Track 11 not present in database
Track 12 not present in database
Track 13 not present in database

None of the tracks are present in the AccurateRip database

End of status report


Exact Audio Copy V0.99 prebeta 4 from 23. January 2008

EAC extraction logfile from 19. April 2009, 11:20

The Doors / Live At The Matrix (Disc 2)

Used drive : PIONEER DVD-RW DVR-111D Adapter: 0 ID: 0

Read mode : Secure
Utilize accurate stream : Yes
Defeat audio cache : Yes
Make use of C2 pointers : No

Read offset correction : 48
Overread into Lead-In and Lead-Out : No
Fill up missing offset samples with silence : Yes
Delete leading and trailing silent blocks : No
Null samples used in CRC calculations : Yes
Used interface : Installed external ASPI interface

Used output format : Internal WAV Routines
Sample format : 44.100 Hz; 16 Bit; Stereo


TOC of the extracted CD

Track | Start | Length | Start sector | End sector
––––––––––––––––––––––––––––-
1 | 0:00.00 | 3:56.59 | 0 | 17758
2 | 3:56.59 | 5:39.35 | 17759 | 43218
3 | 9:36.19 | 8:08.35 | 43219 | 79853
4 | 17:44.54 | 2:14.45 | 79854 | 89948
5 | 19:59.24 | 2:56.49 | 89949 | 103197
6 | 22:55.73 | 2:56.64 | 103198 | 116461
7 | 25:52.62 | 4:53.55 | 116462 | 138491
8 | 30:46.42 | 3:07.26 | 138492 | 152542
9 | 33:53.68 | 8:29.38 | 152543 | 190755
10 | 42:23.31 | 11:11.26 | 190756 | 241106
11 | 53:34.57 | 5:36.19 | 241107 | 266325


Range status and errors

Selected range

Filename D:\Moji ripovi\The Doors - Live At The Matrix (Disc 2).wav

Peak level 94.6 %
Range quality 100.0 %
Test CRC EB8D7A2D
Copy CRC EB8D7A2D
Copy OK

No errors occurred


AccurateRip summary

Track 1 not present in database
Track 2 not present in database
Track 3 not present in database
Track 4 not present in database
Track 5 not present in database
Track 6 not present in database
Track 7 not present in database
Track 8 not present in database
Track 9 not present in database
Track 10 not present in database
Track 11 not present in database

None of the tracks are present in the AccurateRip database

End of status report